Interfilm

Untitled

Jun 7th, 2014
254
Never
Not a member of Pastebin yet? Sign Up, it unlocks many cool features!
  1. Общее
  2. Almost.Human.2013.Blu.Ray.720p.CINEMANIA.mkv
  3. Формат : Matroska
  4. Версия формата : Version 4 / Version 2
  5. Размер файла : 3,61 Гбайт
  6. Продолжительность : 1 ч. 19 м.
  7. Общий поток : 6499 Кбит/сек
  8. Название фильма : Release Group CINEMANIA
  9. Дата кодирования : UTC 2014-06-07 16:34:10
  10. Программа кодирования : mkvmerge v6.9.1 ('Blue Panther') 64bit built on Apr 18 2014 18:23:38
  11. Библиотека кодирования : libebml v1.3.0 + libmatroska v1.4.1
  12.  
  13. Видео
  14. Идентификатор : 1
  15. Формат : AVC
  16. Формат/Информация : Advanced Video Codec
  17. Профиль формата : High@L4.1
  18. Параметр CABAC формата : Да
  19. Параметр ReFrames формата : 9 кадров
  20. Идентификатор кодека : V_MPEG4/ISO/AVC
  21. Продолжительность : 1 ч. 19 м.
  22. Битрейт : 4805 Кбит/сек
  23. Ширина : 1280 пикселей
  24. Высота : 534 пикселя
  25. Соотношение сторон : 2,40:1
  26. Режим частоты кадров : Постоянный
  27. Частота кадров : 23,976 кадра/сек
  28. Цветовое пространство : YUV
  29. Субдискретизация насыщенности : 4:2:0
  30. Битовая глубина : 8 бит
  31. Тип развёртки : Прогрессивная
  32. Бит/(Пиксели*Кадры) : 0.293
  33. Размер потока : 2,59 Гбайт (72%)
  34. Заголовок : Release Group CINEMANIA
  35. Библиотека кодирования : x264 core 138 r2358 9e941d1
  36. Настройки программы : cabac=1 / ref=9 / deblock=1:-3:-3 / analyse=0x3:0x113 / me=umh / subme=11 / psy=1 / psy_rd=1.10:0.15 / mixed_ref=1 / me_range=32 / chroma_me=1 / trellis=2 / 8x8dct=1 / cqm=0 / deadzone=21,11 / fast_pskip=0 / chroma_qp_offset=-2 / threads=18 / lookahead_threads=1 / sliced_threads=0 / nr=0 / decimate=1 / interlaced=0 / bluray_compat=0 / constrained_intra=0 / bframes=6 / b_pyramid=2 / b_adapt=2 / b_bias=0 / direct=3 / weightb=1 / open_gop=0 / weightp=2 / keyint=250 / keyint_min=23 / scenecut=40 / intra_refresh=0 / rc_lookahead=40 / rc=2pass / mbtree=0 / bitrate=4805 / ratetol=1.0 / qcomp=0.60 / qpmin=0 / qpmax=69 / qpstep=4 / cplxblur=20.0 / qblur=0.5 / vbv_maxrate=40000 / vbv_bufsize=30000 / nal_hrd=none / ip_ratio=1.40 / pb_ratio=1.30 / aq=1:0.80
  37. Язык : English
  38. Default : Да
  39. Forced : Нет
  40.  
  41. Аудио #1
  42. Идентификатор : 2
  43. Формат : AC-3
  44. Формат/Информация : Audio Coding 3
  45. Расширение режима : CM (complete main)
  46. Параметр Endianness формата : Big
  47. Идентификатор кодека : A_AC3
  48. Продолжительность : 1 ч. 19 м.
  49. Вид битрейта : Постоянный
  50. Битрейт : 192 Кбит/сек
  51. Каналы : 2 канала
  52. Расположение каналов : Front: L R
  53. Частота : 48,0 КГц
  54. Битовая глубина : 16 бит
  55. Метод сжатия : С потерями
  56. Размер потока : 109 Мбайт (3%)
  57. Заголовок : Влад и Снежинка
  58. Язык : Russian
  59. Default : Да
  60. Forced : Да
  61.  
  62. Аудио #2
  63. Идентификатор : 3
  64. Формат : DTS
  65. Формат/Информация : Digital Theater Systems
  66. Режим : 16
  67. Параметр Endianness формата : Big
  68. Идентификатор кодека : A_DTS
  69. Продолжительность : 1 ч. 19 м.
  70. Вид битрейта : Постоянный
  71. Битрейт : 1509 Кбит/сек
  72. Каналы : 6 каналов
  73. Расположение каналов : Front: L C R, Side: L R, LFE
  74. Частота : 48,0 КГц
  75. Битовая глубина : 24 бит
  76. Метод сжатия : С потерями
  77. Размер потока : 858 Мбайт (23%)
  78. Язык : English
  79. Default : Нет
  80. Forced : Нет
  81.  
  82. Текст
  83. Идентификатор : 4
  84. Формат : UTF-8
  85. Идентификатор кодека : S_TEXT/UTF8
  86. Идентификатор кодека/Информация : UTF-8 Plain Text
  87. Язык : English
  88. Default : Нет
  89. Forced : Нет
  90.  
  91. Меню
  92. 00:00:00.000 : en:00:00:00.000
  93. 00:09:39.829 : en:00:09:39.829
  94. 00:14:18.858 : en:00:14:18.858
  95. 00:23:02.256 : en:00:23:02.256
  96. 00:28:27.206 : en:00:28:27.206
  97. 00:36:02.410 : en:00:36:02.410
  98. 00:41:53.094 : en:00:41:53.094
  99. 00:48:54.181 : en:00:48:54.181
  100. 00:54:20.674 : en:00:54:20.674
  101. 01:00:54.192 : en:01:00:54.192
  102. 01:05:52.198 : en:01:05:52.198
  103. 01:11:10.516 : en:01:11:10.516
RAW Paste Data