Guest User

Untitled

a guest
Feb 16th, 2016
108
Never
Not a member of Pastebin yet? Sign Up, it unlocks many cool features!
  1. Format : MPEG-4
  2. Format profile : QuickTime
  3. Codec ID : qt
  4. File size : 4.21 GiB
  5. Duration : 3mn 44s
  6. Overall bit rate mode : Variable
  7. Overall bit rate : 161 Mbps
  8. Encoded date : UTC 2014-04-01 16:56:50
  9. Tagged date : UTC 2014-04-01 16:59:12
  10. Writing library : Apple QuickTime
  11. Media/UUID : C25275F8-7214-4514-AF38-AA2A8E4A753E
  12.  
  13. Video
  14. ID : 1
  15. Format : ProRes
  16. Format version : Version 0
  17. Format profile : 422 HQ
  18. Codec ID : apch
  19. Duration : 3mn 44s
  20. Bit rate mode : Variable
  21. Bit rate : 159 Mbps
  22. Width : 1 920 pixels
  23. Clean aperture width : 1 888 pixels
  24. Height : 1 080 pixels
  25. Clean aperture height : 1 062 pixels
  26. Display aspect ratio : 16:9
  27. Clean aperture display aspect ratio : 16:9
  28. Frame rate mode : Constant
  29. Frame rate : 23.976 fps
  30. Color space : YUV
  31. Chroma subsampling : 4:2:2
  32. Scan type : Progressive
  33. Bits/(Pixel*Frame) : 3.200
  34. Stream size : 4.16 GiB (99%)
  35. Writing library : Apple
  36. Language : English
  37. Encoded date : UTC 2014-04-01 16:56:50
  38. Tagged date : UTC 2014-04-01 16:59:12
  39. Color primaries : BT.709
  40. Transfer characteristics : BT.709
  41. Matrix coefficients : BT.709
  42.  
  43. Audio
  44. ID : 2
  45. Format : PCM
  46. Format settings, Endianness : Little
  47. Format settings, Sign : Signed
  48. Codec ID : sowt
  49. Duration : 3mn 44s
  50. Bit rate mode : Constant
  51. Bit rate : 1 536 Kbps
  52. Channel(s) : 2 channels
  53. Channel positions : Front: L R
  54. Sampling rate : 48.0 KHz
  55. Bit depth : 16 bits
  56. Stream size : 41.2 MiB (1%)
  57. Language : English
  58. Encoded date : UTC 2014-04-01 16:56:50
  59. Tagged date : UTC 2014-04-01 16:59:12
  60.  
  61. Other
  62. ID : 3
  63. Type : Time code
  64. Format : QuickTime TC
  65. Duration : 3mn 44s
  66. Time code of first frame : 01:00:00:00
  67. Time code, striped : Yes
  68. Language : English
  69. Encoded date : UTC 2014-04-01 16:59:12
  70. Tagged date : UTC 2014-04-01 16:59:12
RAW Paste Data

Adblocker detected! Please consider disabling it...

We've detected AdBlock Plus or some other adblocking software preventing Pastebin.com from fully loading.

We don't have any obnoxious sound, or popup ads, we actively block these annoying types of ads!

Please add Pastebin.com to your ad blocker whitelist or disable your adblocking software.

×