trds

Untitled

Dec 4th, 2021
815
Never
Not a member of Pastebin yet? Sign Up, it unlocks many cool features!
  1. General
  2. Unique ID                                : 76575409159821754086324514301757533847 (0x399BE329665815B7D045C48D5CA2AE97)
  3. Complete name                            : D:\Encodes\Dune.Part.One.2021.720p.BluRay.DD+5.1 x264-playHD\Dune.Part.One.2021.720p.BluRay.DD+5.1 x264-playHD.mkv
  4. Format                                   : Matroska
  5. Format version                           : Version 4
  6. File size                                : 9.50 GiB
  7. Duration                                 : 2 h 35 min
  8. Overall bit rate                         : 8 750 kb/s
  9. Encoded date                             : UTC 2021-12-04 17:06:55
  10. Writing application                      : mkvmerge v56.1.0 ('My Friend') 64-bit
  11. Writing library                          : libebml v1.4.2 + libmatroska v1.6.4
  12.  
  13. Video
  14. ID                                       : 1
  15. Format                                   : AVC
  16. Format/Info                              : Advanced Video Codec
  17. Format profile                           : High@L4.1
  18. Format settings                          : CABAC / 12 Ref Frames
  19. Format settings, CABAC                   : Yes
  20. Format settings, Reference frames        : 12 frames
  21. Codec ID                                 : V_MPEG4/ISO/AVC
  22. Duration                                 : 2 h 35 min
  23. Bit rate                                 : 7 724 kb/s
  24. Width                                    : 1 280 pixels
  25. Height                                   : 536 pixels
  26. Display aspect ratio                     : 2.40:1
  27. Frame rate mode                          : Constant
  28. Frame rate                               : 23.976 (24000/1001) FPS
  29. Color space                              : YUV
  30. Chroma subsampling                       : 4:2:0
  31. Bit depth                                : 8 bits
  32. Scan type                                : Progressive
  33. Bits/(Pixel*Frame)                       : 0.470
  34. Stream size                              : 8.39 GiB (88%)
  35. Writing library                          : x264 core 161 r3048+53M t_mod ~~~~~~~ Just us ~ JigSaw & droops16 ~
  36. Encoding settings                        : cabac=1 / ref=12 / deblock=1:-3:-3 / analyse=0x3:0x133 / me=umh / subme=10 / psy=1 / fade_compensate=0.00 / psy_rd=1.00:0.00 / mixed_ref=1 / me_range=32 / chroma_me=1 / trellis=2 / 8x8dct=1 / cqm=0 / deadzone=21,11 / fast_pskip=0 / chroma_qp_offset=-2 / threads=12 / lookahead_threads=2 / sliced_threads=0 / nr=0 / decimate=0 / interlaced=0 / bluray_compat=0 / constrained_intra=0 / fgo=0 / bframes=9 / b_pyramid=2 / b_adapt=2 / b_bias=0 / direct=3 / weightb=1 / open_gop=0 / weightp=2 / keyint=250 / keyint_min=23 / scenecut=40 / intra_refresh=0 / rc=crf / mbtree=0 / crf=14.8000 / qcomp=0.60 / qpmin=0:0:0 / qpmax=69:69:69 / qpstep=4 / ip_ratio=1.30 / pb_ratio=1.20 / aq=3:0.85 / aq-sensitivity=10.00 / aq-factor=1.00:1.00:1.00 / aq2=0 / aq3=0
  37. Language                                 : English
  38. Default                                  : Yes
  39. Forced                                   : No
  40.  
  41. Audio
  42. ID                                       : 2
  43. Format                                   : E-AC-3
  44. Format/Info                              : Enhanced AC-3
  45. Commercial name                          : Dolby Digital Plus
  46. Codec ID                                 : A_EAC3
  47. Duration                                 : 2 h 35 min
  48. Bit rate mode                            : Constant
  49. Bit rate                                 : 1 023 kb/s
  50. Channel(s)                               : 6 channels
  51. Channel layout                           : L R C LFE Ls Rs
  52. Sampling rate                            : 48.0 kHz
  53. Frame rate                               : 93.750 FPS (512 SPF)
  54. Compression mode                         : Lossy
  55. Stream size                              : 1.11 GiB (12%)
  56. Language                                 : English
  57. Service kind                             : Complete Main
  58. Default                                  : Yes
  59. Forced                                   : No
  60.  
  61. Text #1
  62. ID                                       : 3
  63. Format                                   : UTF-8
  64. Codec ID                                 : S_TEXT/UTF8
  65. Codec ID/Info                            : UTF-8 Plain Text
  66. Duration                                 : 2 h 25 min
  67. Bit rate                                 : 31 b/s
  68. Count of elements                        : 1335
  69. Stream size                              : 33.9 KiB (0%)
  70. Language                                 : English
  71. Default                                  : No
  72. Forced                                   : No
  73.  
  74. Text #2
  75. ID                                       : 4
  76. Format                                   : UTF-8
  77. Codec ID                                 : S_TEXT/UTF8
  78. Codec ID/Info                            : UTF-8 Plain Text
  79. Duration                                 : 2 h 26 min
  80. Bit rate                                 : 41 b/s
  81. Count of elements                        : 1724
  82. Stream size                              : 44.4 KiB (0%)
  83. Title                                    : SDH
  84. Language                                 : English
  85. Default                                  : No
  86. Forced                                   : No
  87.  
  88. Text #3
  89. ID                                       : 5
  90. Format                                   : UTF-8
  91. Codec ID                                 : S_TEXT/UTF8
  92. Codec ID/Info                            : UTF-8 Plain Text
  93. Duration                                 : 2 h 35 min
  94. Bit rate                                 : 30 b/s
  95. Count of elements                        : 1257
  96. Stream size                              : 34.2 KiB (0%)
  97. Language                                 : Czech
  98. Default                                  : No
  99. Forced                                   : No
  100.  
  101. Text #4
  102. ID                                       : 6
  103. Format                                   : UTF-8
  104. Codec ID                                 : S_TEXT/UTF8
  105. Codec ID/Info                            : UTF-8 Plain Text
  106. Duration                                 : 2 h 35 min
  107. Bit rate                                 : 30 b/s
  108. Count of elements                        : 928
  109. Stream size                              : 34.8 KiB (0%)
  110. Language                                 : Dutch
  111. Default                                  : No
  112. Forced                                   : No
  113.  
  114. Text #5
  115. ID                                       : 7
  116. Format                                   : UTF-8
  117. Codec ID                                 : S_TEXT/UTF8
  118. Codec ID/Info                            : UTF-8 Plain Text
  119. Duration                                 : 2 h 35 min
  120. Bit rate                                 : 31 b/s
  121. Count of elements                        : 1264
  122. Stream size                              : 36.1 KiB (0%)
  123. Language                                 : Finnish
  124. Default                                  : No
  125. Forced                                   : No
  126.  
  127. Text #6
  128. ID                                       : 8
  129. Format                                   : UTF-8
  130. Codec ID                                 : S_TEXT/UTF8
  131. Codec ID/Info                            : UTF-8 Plain Text
  132. Duration                                 : 2 h 35 min
  133. Bit rate                                 : 30 b/s
  134. Count of elements                        : 1249
  135. Stream size                              : 35.1 KiB (0%)
  136. Language                                 : French
  137. Default                                  : No
  138. Forced                                   : No
  139.  
  140. Text #7
  141. ID                                       : 9
  142. Format                                   : UTF-8
  143. Codec ID                                 : S_TEXT/UTF8
  144. Codec ID/Info                            : UTF-8 Plain Text
  145. Duration                                 : 2 h 35 min
  146. Bit rate                                 : 55 b/s
  147. Count of elements                        : 1246
  148. Stream size                              : 62.6 KiB (0%)
  149. Language                                 : Greek
  150. Default                                  : No
  151. Forced                                   : No
  152.  
  153. Text #8
  154. ID                                       : 10
  155. Format                                   : UTF-8
  156. Codec ID                                 : S_TEXT/UTF8
  157. Codec ID/Info                            : UTF-8 Plain Text
  158. Duration                                 : 2 h 28 min
  159. Bit rate                                 : 30 b/s
  160. Count of elements                        : 1216
  161. Stream size                              : 33.1 KiB (0%)
  162. Language                                 : Croatian
  163. Default                                  : No
  164. Forced                                   : No
  165.  
  166. Text #9
  167. ID                                       : 11
  168. Format                                   : UTF-8
  169. Codec ID                                 : S_TEXT/UTF8
  170. Codec ID/Info                            : UTF-8 Plain Text
  171. Duration                                 : 2 h 26 min
  172. Bit rate                                 : 34 b/s
  173. Count of elements                        : 1366
  174. Stream size                              : 36.9 KiB (0%)
  175. Language                                 : Italian
  176. Default                                  : No
  177. Forced                                   : No
  178.  
  179. Text #10
  180. ID                                       : 12
  181. Format                                   : UTF-8
  182. Codec ID                                 : S_TEXT/UTF8
  183. Codec ID/Info                            : UTF-8 Plain Text
  184. Duration                                 : 2 h 35 min
  185. Bit rate                                 : 32 b/s
  186. Count of elements                        : 1250
  187. Stream size                              : 36.9 KiB (0%)
  188. Language                                 : Portuguese
  189. Default                                  : No
  190. Forced                                   : No
  191.  
  192. Text #11
  193. ID                                       : 13
  194. Format                                   : UTF-8
  195. Codec ID                                 : S_TEXT/UTF8
  196. Codec ID/Info                            : UTF-8 Plain Text
  197. Duration                                 : 2 h 27 min
  198. Bit rate                                 : 35 b/s
  199. Count of elements                        : 1190
  200. Stream size                              : 38.2 KiB (0%)
  201. Language                                 : Romanian
  202. Default                                  : No
  203. Forced                                   : No
  204.  
  205. Text #12
  206. ID                                       : 14
  207. Format                                   : UTF-8
  208. Codec ID                                 : S_TEXT/UTF8
  209. Codec ID/Info                            : UTF-8 Plain Text
  210. Duration                                 : 2 h 27 min
  211. Bit rate                                 : 32 b/s
  212. Count of elements                        : 921
  213. Stream size                              : 35.1 KiB (0%)
  214. Language                                 : Slovenian
  215. Default                                  : No
  216. Forced                                   : No
  217.  
  218. Text #13
  219. ID                                       : 15
  220. Format                                   : UTF-8
  221. Codec ID                                 : S_TEXT/UTF8
  222. Codec ID/Info                            : UTF-8 Plain Text
  223. Duration                                 : 2 h 28 min
  224. Bit rate                                 : 33 b/s
  225. Count of elements                        : 1286
  226. Stream size                              : 36.2 KiB (0%)
  227. Language                                 : Spanish
  228. Default                                  : No
  229. Forced                                   : No
  230.  
  231. Text #14
  232. ID                                       : 16
  233. Format                                   : UTF-8
  234. Codec ID                                 : S_TEXT/UTF8
  235. Codec ID/Info                            : UTF-8 Plain Text
  236. Duration                                 : 2 h 35 min
  237. Bit rate                                 : 30 b/s
  238. Count of elements                        : 963
  239. Stream size                              : 35.2 KiB (0%)
  240. Language                                 : Swedish
  241. Default                                  : No
  242. Forced                                   : No
  243.  
  244. Menu
  245. 00:00:00.000                             : :Chapter 01
  246. 00:03:16.154                             : :Chapter 02
  247. 00:12:54.816                             : :Chapter 03
  248. 00:22:00.736                             : :Chapter 04
  249. 00:29:16.922                             : :Chapter 05
  250. 00:39:10.932                             : :Chapter 06
  251. 00:47:19.795                             : :Chapter 07
  252. 00:56:53.493                             : :Chapter 08
  253. 01:06:50.381                             : :Chapter 09
  254. 01:16:44.892                             : :Chapter 10
  255. 01:26:00.655                             : :Chapter 11
  256. 01:36:00.380                             : :Chapter 12
  257. 01:45:09.470                             : :Chapter 13
  258. 01:53:50.323                             : :Chapter 14
  259. 02:03:38.536                             : :Chapter 15
  260. 02:12:13.342                             : :Chapter 16
  261. 02:20:45.771                             : :Chapter 17
  262. 02:27:27.797                             : :Chapter 18
  263.  
  264.  
RAW Paste Data