GrabHD

Untitled

Feb 24th, 2020
69
Never
Not a member of Pastebin yet? Sign Up, it unlocks many cool features!
  1. General
  2. Unique ID : 235244875890855791838393665107701294982 (0xB0FA83DBE6DF10DAA01FCD1141B86786)
  3. Complete name : F:\Poteryannyiy.ostrov.(2019).WEB-DLRip.(AVC).by.Серый1779.Files-x.mkv
  4. Format : Matroska
  5. Format version : Version 2
  6. File size : 1.46 GiB
  7. Duration : 1 h 26 min
  8. Overall bit rate : 2 406 kb/s
  9. Encoded date : UTC 2020-02-24 15:41:15
  10. Writing application : mkvmerge v7.8.0 ('River Man') 32bit built on Apr 3 2015 12:11:22
  11. Writing library : libebml v1.3.1 + libmatroska v1.4.2
  12.  
  13. Video
  14. ID : 1
  15. Format : AVC
  16. Format/Info : Advanced Video Codec
  17. Format profile : High@L4.1
  18. Format settings : CABAC / 10 Ref Frames
  19. Format settings, CABAC : Yes
  20. Format settings, RefFrames : 10 frames
  21. Codec ID : V_MPEG4/ISO/AVC
  22. Duration : 1 h 26 min
  23. Bit rate : 2 023 kb/s
  24. Width : 1 024 pixels
  25. Height : 576 pixels
  26. Display aspect ratio : 16:9
  27. Frame rate mode : Constant
  28. Frame rate : 25.000 FPS
  29. Color space : YUV
  30. Chroma subsampling : 4:2:0
  31. Bit depth : 8 bits
  32. Scan type : Progressive
  33. Bits/(Pixel*Frame) : 0.137
  34. Stream size : 1.19 GiB (82%)
  35. Writing library : x264 core 146 r2538 121396c
  36. Encoding settings : cabac=1 / ref=10 / deblock=1:-2:-1 / analyse=0x3:0x133 / me=umh / subme=11 / psy=1 / psy_rd=1.00:0.08 / mixed_ref=1 / me_range=32 / chroma_me=1 / trellis=2 / 8x8dct=1 / cqm=0 / deadzone=21,11 / fast_pskip=0 / chroma_qp_offset=-3 / threads=18 / lookahead_threads=4 / sliced_threads=0 / nr=0 / decimate=1 / interlaced=0 / bluray_compat=0 / constrained_intra=0 / bframes=11 / b_pyramid=2 / b_adapt=2 / b_bias=0 / direct=1 / weightb=1 / open_gop=0 / weightp=2 / keyint=250 / keyint_min=25 / scenecut=40 / intra_refresh=0 / rc=2pass / mbtree=0 / bitrate=2023 / ratetol=1.0 / qcomp=0.60 / qpmin=0 / qpmax=69 / qpstep=4 / cplxblur=20.0 / qblur=0.5 / ip_ratio=1.40 / pb_ratio=1.30 / aq=2:1.00
  37. Default : Yes
  38. Forced : No
  39. Color range : Limited
  40. Color primaries : BT.709
  41. Transfer characteristics : BT.709
  42. Matrix coefficients : BT.709
  43.  
  44. Audio
  45. ID : 2
  46. Format : AC-3
  47. Format/Info : Audio Coding 3
  48. Format settings, Endianness : Big
  49. Codec ID : A_AC3
  50. Duration : 1 h 26 min
  51. Bit rate mode : Constant
  52. Bit rate : 384 kb/s
  53. Channel(s) : 6 channels
  54. Channel positions : Front: L C R, Side: L R, LFE
  55. Sampling rate : 48.0 kHz
  56. Frame rate : 31.250 FPS (1536 SPF)
  57. Bit depth : 16 bits
  58. Compression mode : Lossy
  59. Stream size : 238 MiB (16%)
  60. Service kind : Complete Main
  61. Default : Yes
  62. Forced : No
RAW Paste Data