trds

Untitled

Nov 11th, 2021
94
Never
Not a member of Pastebin yet? Sign Up, it unlocks many cool features!
  1. General
  2. Unique ID                                : 255270911656080555074773273695076044227 (0xC00B63A72136869B0F3084A6BCF14DC3)
  3. Complete name                            : D:\Encodes\Shang-Chi.And.The.Legend.Of.The.Ten.Rings.2021.720p.BluRay.DD5.1.x264-playHD\Shang-Chi.And.The.Legend.Of.The.Ten.Rings.2021.720p.BluRay.DD5.1.x264-playHD.mkv
  4. Format                                   : Matroska
  5. Format version                           : Version 4
  6. File size                                : 7.46 GiB
  7. Duration                                 : 2 h 12 min
  8. Overall bit rate                         : 8 071 kb/s
  9. Encoded date                             : UTC 2021-11-11 15:47:39
  10. Writing application                      : mkvmerge v56.1.0 ('My Friend') 64-bit
  11. Writing library                          : libebml v1.4.2 + libmatroska v1.6.4
  12.  
  13. Video
  14. ID                                       : 1
  15. Format                                   : AVC
  16. Format/Info                              : Advanced Video Codec
  17. Format profile                           : High@L4.1
  18. Format settings                          : CABAC / 12 Ref Frames
  19. Format settings, CABAC                   : Yes
  20. Format settings, Reference frames        : 12 frames
  21. Codec ID                                 : V_MPEG4/ISO/AVC
  22. Duration                                 : 2 h 12 min
  23. Bit rate                                 : 7 236 kb/s
  24. Width                                    : 1 280 pixels
  25. Height                                   : 536 pixels
  26. Display aspect ratio                     : 2.40:1
  27. Frame rate mode                          : Constant
  28. Frame rate                               : 23.976 (24000/1001) FPS
  29. Color space                              : YUV
  30. Chroma subsampling                       : 4:2:0
  31. Bit depth                                : 8 bits
  32. Scan type                                : Progressive
  33. Bits/(Pixel*Frame)                       : 0.440
  34. Stream size                              : 6.69 GiB (90%)
  35. Writing library                          : x264 core 161 r3048+53M t_mod ~~~~~~~ Just us ~ JigSaw & droops16 ~
  36. Encoding settings                        : cabac=1 / ref=12 / deblock=1:-3:-3 / analyse=0x3:0x133 / me=umh / subme=10 / psy=1 / fade_compensate=0.00 / psy_rd=1.00:0.00 / mixed_ref=1 / me_range=32 / chroma_me=1 / trellis=2 / 8x8dct=1 / cqm=0 / deadzone=21,11 / fast_pskip=0 / chroma_qp_offset=-2 / threads=12 / lookahead_threads=2 / sliced_threads=0 / nr=0 / decimate=0 / interlaced=0 / bluray_compat=0 / constrained_intra=0 / fgo=0 / bframes=9 / b_pyramid=2 / b_adapt=2 / b_bias=0 / direct=3 / weightb=1 / open_gop=0 / weightp=2 / keyint=250 / keyint_min=23 / scenecut=40 / intra_refresh=0 / rc=crf / mbtree=0 / crf=14.3000 / qcomp=0.60 / qpmin=0:0:0 / qpmax=69:69:69 / qpstep=4 / ip_ratio=1.30 / pb_ratio=1.20 / aq=3:0.85 / aq-sensitivity=10.00 / aq-factor=1.00:1.00:1.00 / aq2=0 / aq3=0
  37. Language                                 : English
  38. Default                                  : Yes
  39. Forced                                   : No
  40.  
  41. Audio #1
  42. ID                                       : 2
  43. Format                                   : AC-3
  44. Format/Info                              : Audio Coding 3
  45. Commercial name                          : Dolby Digital
  46. Codec ID                                 : A_AC3
  47. Duration                                 : 2 h 12 min
  48. Bit rate mode                            : Constant
  49. Bit rate                                 : 640 kb/s
  50. Channel(s)                               : 6 channels
  51. Channel layout                           : L R C LFE Ls Rs
  52. Sampling rate                            : 48.0 kHz
  53. Frame rate                               : 31.250 FPS (1536 SPF)
  54. Compression mode                         : Lossy
  55. Stream size                              : 606 MiB (8%)
  56. Language                                 : English
  57. Service kind                             : Complete Main
  58. Default                                  : Yes
  59. Forced                                   : No
  60.  
  61. Audio #2
  62. ID                                       : 3
  63. Format                                   : AC-3
  64. Format/Info                              : Audio Coding 3
  65. Commercial name                          : Dolby Digital
  66. Codec ID                                 : A_AC3
  67. Duration                                 : 2 h 12 min
  68. Bit rate mode                            : Constant
  69. Bit rate                                 : 192 kb/s
  70. Channel(s)                               : 2 channels
  71. Channel layout                           : L R
  72. Sampling rate                            : 48.0 kHz
  73. Frame rate                               : 31.250 FPS (1536 SPF)
  74. Compression mode                         : Lossy
  75. Stream size                              : 182 MiB (2%)
  76. Title                                    : Commentary by director Destin Daniel Cretton and writer Dave Callaham
  77. Language                                 : English
  78. Service kind                             : Complete Main
  79. Default                                  : No
  80. Forced                                   : No
  81.  
  82. Text #1
  83. ID                                       : 4
  84. Format                                   : UTF-8
  85. Codec ID                                 : S_TEXT/UTF8
  86. Codec ID/Info                            : UTF-8 Plain Text
  87. Duration                                 : 1 h 55 min
  88. Bit rate                                 : 5 b/s
  89. Count of elements                        : 188
  90. Stream size                              : 4.97 KiB (0%)
  91. Title                                    : Forced
  92. Language                                 : English
  93. Default                                  : Yes
  94. Forced                                   : Yes
  95.  
  96. Text #2
  97. ID                                       : 5
  98. Format                                   : UTF-8
  99. Codec ID                                 : S_TEXT/UTF8
  100. Codec ID/Info                            : UTF-8 Plain Text
  101. Duration                                 : 2 h 10 min
  102. Bit rate                                 : 38 b/s
  103. Count of elements                        : 1302
  104. Stream size                              : 36.9 KiB (0%)
  105. Language                                 : English
  106. Default                                  : No
  107. Forced                                   : No
  108.  
  109. Text #3
  110. ID                                       : 6
  111. Format                                   : UTF-8
  112. Codec ID                                 : S_TEXT/UTF8
  113. Codec ID/Info                            : UTF-8 Plain Text
  114. Duration                                 : 2 h 11 min
  115. Bit rate                                 : 51 b/s
  116. Count of elements                        : 1850
  117. Stream size                              : 49.2 KiB (0%)
  118. Title                                    : SDH
  119. Language                                 : English
  120. Default                                  : No
  121. Forced                                   : No
  122.  
  123. Text #4
  124. ID                                       : 7
  125. Format                                   : UTF-8
  126. Codec ID                                 : S_TEXT/UTF8
  127. Codec ID/Info                            : UTF-8 Plain Text
  128. Duration                                 : 2 h 12 min
  129. Bit rate                                 : 76 b/s
  130. Count of elements                        : 1897
  131. Stream size                              : 74.1 KiB (0%)
  132. Title                                    : Commentary
  133. Language                                 : English
  134. Default                                  : No
  135. Forced                                   : No
  136.  
  137. Text #5
  138. ID                                       : 8
  139. Format                                   : UTF-8
  140. Codec ID                                 : S_TEXT/UTF8
  141. Codec ID/Info                            : UTF-8 Plain Text
  142. Duration                                 : 2 h 12 min
  143. Bit rate                                 : 82 b/s
  144. Count of elements                        : 2017
  145. Stream size                              : 80.1 KiB (0%)
  146. Title                                    : Commentary-SDH
  147. Language                                 : English
  148. Default                                  : No
  149. Forced                                   : No
  150.  
  151. Text #6
  152. ID                                       : 9
  153. Format                                   : UTF-8
  154. Codec ID                                 : S_TEXT/UTF8
  155. Codec ID/Info                            : UTF-8 Plain Text
  156. Duration                                 : 2 h 11 min
  157. Bit rate                                 : 33 b/s
  158. Count of elements                        : 941
  159. Stream size                              : 32.1 KiB (0%)
  160. Language                                 : Dutch
  161. Default                                  : No
  162. Forced                                   : No
  163.  
  164. Text #7
  165. ID                                       : 10
  166. Format                                   : UTF-8
  167. Codec ID                                 : S_TEXT/UTF8
  168. Codec ID/Info                            : UTF-8 Plain Text
  169. Duration                                 : 2 h 11 min
  170. Bit rate                                 : 36 b/s
  171. Count of elements                        : 1126
  172. Stream size                              : 35.2 KiB (0%)
  173. Language                                 : Finnish
  174. Default                                  : No
  175. Forced                                   : No
  176.  
  177. Text #8
  178. ID                                       : 11
  179. Format                                   : UTF-8
  180. Codec ID                                 : S_TEXT/UTF8
  181. Codec ID/Info                            : UTF-8 Plain Text
  182. Duration                                 : 2 h 11 min
  183. Bit rate                                 : 31 b/s
  184. Count of elements                        : 1082
  185. Stream size                              : 30.6 KiB (0%)
  186. Language                                 : French
  187. Default                                  : No
  188. Forced                                   : No
  189.  
  190. Text #9
  191. ID                                       : 12
  192. Format                                   : UTF-8
  193. Codec ID                                 : S_TEXT/UTF8
  194. Codec ID/Info                            : UTF-8 Plain Text
  195. Duration                                 : 2 h 11 min
  196. Bit rate                                 : 33 b/s
  197. Count of elements                        : 1079
  198. Stream size                              : 32.5 KiB (0%)
  199. Language                                 : German
  200. Default                                  : No
  201. Forced                                   : No
  202.  
  203. Text #10
  204. ID                                       : 13
  205. Format                                   : UTF-8
  206. Codec ID                                 : S_TEXT/UTF8
  207. Codec ID/Info                            : UTF-8 Plain Text
  208. Duration                                 : 2 h 11 min
  209. Bit rate                                 : 37 b/s
  210. Count of elements                        : 1128
  211. Stream size                              : 36.1 KiB (0%)
  212. Language                                 : Italian
  213. Default                                  : No
  214. Forced                                   : No
  215.  
  216. Text #11
  217. ID                                       : 14
  218. Format                                   : UTF-8
  219. Codec ID                                 : S_TEXT/UTF8
  220. Codec ID/Info                            : UTF-8 Plain Text
  221. Duration                                 : 2 h 11 min
  222. Bit rate                                 : 36 b/s
  223. Count of elements                        : 1071
  224. Stream size                              : 35.4 KiB (0%)
  225. Language                                 : Portuguese
  226. Default                                  : No
  227. Forced                                   : No
  228.  
  229. Text #12
  230. ID                                       : 15
  231. Format                                   : UTF-8
  232. Codec ID                                 : S_TEXT/UTF8
  233. Codec ID/Info                            : UTF-8 Plain Text
  234. Duration                                 : 2 h 11 min
  235. Bit rate                                 : 36 b/s
  236. Count of elements                        : 1065
  237. Stream size                              : 34.7 KiB (0%)
  238. Language                                 : Romanian
  239. Default                                  : No
  240. Forced                                   : No
  241.  
  242. Text #13
  243. ID                                       : 16
  244. Format                                   : UTF-8
  245. Codec ID                                 : S_TEXT/UTF8
  246. Codec ID/Info                            : UTF-8 Plain Text
  247. Duration                                 : 2 h 11 min
  248. Bit rate                                 : 45 b/s
  249. Count of elements                        : 1295
  250. Stream size                              : 43.6 KiB (0%)
  251. Language                                 : Spanish
  252. Default                                  : No
  253. Forced                                   : No
  254.  
  255. Text #14
  256. ID                                       : 17
  257. Format                                   : UTF-8
  258. Codec ID                                 : S_TEXT/UTF8
  259. Codec ID/Info                            : UTF-8 Plain Text
  260. Duration                                 : 2 h 11 min
  261. Bit rate                                 : 30 b/s
  262. Count of elements                        : 854
  263. Stream size                              : 29.3 KiB (0%)
  264. Language                                 : Swedish
  265. Default                                  : No
  266. Forced                                   : No
  267.  
  268. Menu
  269. 00:00:00.000                             : :Chapter 01
  270. 00:03:52.858                             : :Chapter 02
  271. 00:09:28.985                             : :Chapter 03
  272. 00:16:17.185                             : :Chapter 04
  273. 00:22:47.491                             : :Chapter 05
  274. 00:31:59.668                             : :Chapter 06
  275. 00:42:49.484                             : :Chapter 07
  276. 00:52:21.055                             : :Chapter 08
  277. 00:56:51.325                             : :Chapter 09
  278. 01:00:35.006                             : :Chapter 10
  279. 01:08:46.122                             : :Chapter 11
  280. 01:15:55.050                             : :Chapter 12
  281. 01:19:51.286                             : :Chapter 13
  282. 01:29:49.676                             : :Chapter 14
  283. 01:36:45.800                             : :Chapter 15
  284. 01:47:00.623                             : :Chapter 16
  285. 01:55:25.293                             : :Chapter 17
  286. 02:00:07.242                             : :Chapter 18
  287. 02:01:46.132                             : :Chapter 19
  288. 02:04:08.858                             : :Chapter 20
  289. 02:10:39.248                             : :Chapter 21
  290.  
  291.  
RAW Paste Data