SHARE
TWEET

Cemetery.Man.1994.1080p.BluRay.SHAMELESS.REMUX.DUAL.Plus.Comm.AVC.LPCM-PTP

a guest Jun 13th, 2019 31 Never
Not a member of Pastebin yet? Sign Up, it unlocks many cool features!
  1. General
  2. Unique ID                                : 129434343317146409341504491270201463126 (0x616025D3C60C0D082B3C3C62A878D156)
  3. Complete name                            : Cemetery.Man.1994.1080p.BluRay.SHAMELESS.REMUX.DUAL.Plus.Comm.AVC.LPCM-PTP.mkv
  4. Format                                   : Matroska
  5. Format version                           : Version 2
  6. File size                                : 25.0 GiB
  7. Duration                                 : 1 h 43 min
  8. Overall bit rate mode                    : Variable
  9. Overall bit rate                         : 34.7 Mb/s
  10. Movie name                               : Dellamorte Dellamore
  11. Encoded date                             : UTC 2019-03-06 07:11:09
  12. Writing application                      : MakeMKV v1.14.2 win(x64-release)
  13. Writing library                          : libmakemkv v1.14.2 (1.3.5/1.4.7) win(x64-release)
  14.  
  15. Video
  16. ID                                       : 1
  17. ID in the original source medium         : 4113 (0x1011)
  18. Format                                   : AVC
  19. Format/Info                              : Advanced Video Codec
  20. Format profile                           : High@L4.1
  21. Format settings                          : CABAC / 3 Ref Frames
  22. Format settings, CABAC                   : Yes
  23. Format settings, Reference frames        : 3 frames
  24. Format settings, GOP                     : M=3, N=12
  25. Codec ID                                 : V_MPEG4/ISO/AVC
  26. Duration                                 : 1 h 43 min
  27. Bit rate mode                            : Variable
  28. Bit rate                                 : 30.0 Mb/s
  29. Maximum bit rate                         : 35.0 Mb/s
  30. Width                                    : 1 920 pixels
  31. Height                                   : 1 080 pixels
  32. Display aspect ratio                     : 16:9
  33. Frame rate mode                          : Constant
  34. Frame rate                               : 25.000 FPS
  35. Standard                                 : NTSC
  36. Color space                              : YUV
  37. Chroma subsampling                       : 4:2:0
  38. Bit depth                                : 8 bits
  39. Scan type                                : MBAFF
  40. Bits/(Pixel*Frame)                       : 0.579
  41. Stream size                              : 21.6 GiB (87%)
  42. Language                                 : English
  43. Default                                  : No
  44. Forced                                   : No
  45. Color range                              : Limited
  46. Color primaries                          : BT.709
  47. Transfer characteristics                 : BT.709
  48. Matrix coefficients                      : BT.709
  49. Original source medium                   : Blu-ray
  50.  
  51. Audio #1
  52. ID                                       : 2
  53. ID in the original source medium         : 4352 (0x1100)
  54. Format                                   : PCM
  55. Format settings                          : Little / Signed
  56. Codec ID                                 : A_PCM/INT/LIT
  57. Duration                                 : 1 h 43 min
  58. Bit rate mode                            : Constant
  59. Bit rate                                 : 1 536 kb/s
  60. Channel(s)                               : 2 channels
  61. Sampling rate                            : 48.0 kHz
  62. Frame rate                               : 30.000 FPS (1600 SPF)
  63. Bit depth                                : 16 bits
  64. Stream size                              : 1.11 GiB (4%)
  65. Title                                    : Stereo
  66. Language                                 : English
  67. Default                                  : Yes
  68. Forced                                   : No
  69. Original source medium                   : Blu-ray
  70.  
  71. Audio #2
  72. ID                                       : 3
  73. ID in the original source medium         : 4353 (0x1101)
  74. Format                                   : PCM
  75. Format settings                          : Little / Signed
  76. Codec ID                                 : A_PCM/INT/LIT
  77. Duration                                 : 1 h 43 min
  78. Bit rate mode                            : Constant
  79. Bit rate                                 : 1 536 kb/s
  80. Channel(s)                               : 2 channels
  81. Sampling rate                            : 48.0 kHz
  82. Frame rate                               : 30.000 FPS (1600 SPF)
  83. Bit depth                                : 16 bits
  84. Stream size                              : 1.11 GiB (4%)
  85. Title                                    : Stereo
  86. Language                                 : Italian
  87. Default                                  : No
  88. Forced                                   : No
  89. Original source medium                   : Blu-ray
  90.  
  91. Audio #3
  92. ID                                       : 4
  93. ID in the original source medium         : 4354 (0x1102)
  94. Format                                   : PCM
  95. Format settings                          : Little / Signed
  96. Codec ID                                 : A_PCM/INT/LIT
  97. Duration                                 : 1 h 43 min
  98. Bit rate mode                            : Constant
  99. Bit rate                                 : 1 536 kb/s
  100. Channel(s)                               : 2 channels
  101. Sampling rate                            : 48.0 kHz
  102. Frame rate                               : 30.000 FPS (1600 SPF)
  103. Bit depth                                : 16 bits
  104. Stream size                              : 1.11 GiB (4%)
  105. Title                                    : Stereo
  106. Language                                 : Italian
  107. Default                                  : No
  108. Forced                                   : No
  109. Original source medium                   : Blu-ray
  110.  
  111. Text #1
  112. ID                                       : 5
  113. ID in the original source medium         : 4608 (0x1200)
  114. Format                                   : PGS
  115. Codec ID                                 : S_HDMV/PGS
  116. Codec ID/Info                            : Picture based subtitle format used on BDs/HD-DVDs
  117. Duration                                 : 1 h 39 min
  118. Bit rate                                 : 19.4 kb/s
  119. Count of elements                        : 1500
  120. Stream size                              : 13.8 MiB (0%)
  121. Language                                 : English
  122. Default                                  : No
  123. Forced                                   : No
  124. Original source medium                   : Blu-ray
  125.  
  126. Text #2
  127. ID                                       : 7
  128. ID in the original source medium         : 4609 (0x1201)
  129. Format                                   : PGS
  130. Codec ID                                 : S_HDMV/PGS
  131. Codec ID/Info                            : Picture based subtitle format used on BDs/HD-DVDs
  132. Duration                                 : 1 h 43 min
  133. Bit rate                                 : 38.0 kb/s
  134. Count of elements                        : 2363
  135. Stream size                              : 28.0 MiB (0%)
  136. Language                                 : English
  137. Default                                  : No
  138. Forced                                   : No
  139. Original source medium                   : Blu-ray
  140.  
  141. Menu
  142. 00:00:00.000                             : en:Chapter 01
  143. 00:05:58.200                             : en:Chapter 02
  144. 00:12:12.120                             : en:Chapter 03
  145. 00:17:36.720                             : en:Chapter 04
  146. 00:25:33.400                             : en:Chapter 05
  147. 00:36:25.320                             : en:Chapter 06
  148. 00:49:30.640                             : en:Chapter 07
  149. 00:56:44.840                             : en:Chapter 08
  150. 01:09:06.800                             : en:Chapter 09
  151. 01:17:38.600                             : en:Chapter 10
  152. 01:32:11.200                             : en:Chapter 11
  153. 01:40:06.160                             : en:Chapter 12
RAW Paste Data
We use cookies for various purposes including analytics. By continuing to use Pastebin, you agree to our use of cookies as described in the Cookies Policy. OK, I Understand
 
Top