SHARE
TWEET

SHW.BDm720

a guest Oct 23rd, 2019 142 Never
Not a member of Pastebin yet? Sign Up, it unlocks many cool features!
  1. General
  2. Format                      : Matroska
  3. Format version              : Version 4
  4. File size                   : 2.58 GiB
  5. Duration                    : 1 h 55 min
  6. Overall bit rate            : 3 185 kb/s
  7. Movie name                  : Shadow [x264.BDRip-m720p][Spa-AC3/Eng-AC3 5.1] por Vekin
  8. Encoded date                : UTC 2019-10-23 15:08:15
  9. Writing application         : mkvmerge v38.0.0 ('The Silent Type') 64-bit
  10. Writing library             : libebml v1.3.9 + libmatroska v1.5.2
  11.  
  12. Video
  13. ID                          : 1
  14. Format                      : AVC
  15. Format/Info                 : Advanced Video Codec
  16. Format profile              : High@L4.1
  17. Format settings             : CABAC / 6 Ref Frames
  18. Format settings, CABAC      : Yes
  19. Format settings, Reference  : 6 frames
  20. Codec ID                    : V_MPEG4/ISO/AVC
  21. Duration                    : 1 h 55 min
  22. Bit rate                    : 2 159 kb/s
  23. Width                       : 1 280 pixels
  24. Height                      : 536 pixels
  25. Display aspect ratio        : 2.40:1
  26. Frame rate mode             : Constant
  27. Frame rate                  : 24.000 FPS
  28. Color space                 : YUV
  29. Chroma subsampling          : 4:2:0
  30. Bit depth                   : 8 bits
  31. Scan type                   : Progressive
  32. Bits/(Pixel*Frame)          : 0.131
  33. Stream size                 : 1.75 GiB (68%)
  34. Writing library             : x264 core 157 r2935 545de2f
  35. Encoding settings           : cabac=1 / ref=6 / deblock=1:0:0 / analyse=0x3:0x133 / me=umh / subme=10 / psy=1 / psy_rd=1.00:0.00 / mixed_ref=1 / me_range=32 / chroma_me=1 / trellis=2 / 8x8dct=1 / cqm=0 / deadzone=21,11 / fast_pskip=0 / chroma_qp_offset=-2 / threads=4 / lookahead_threads=1 / sliced_threads=0 / nr=0 / decimate=1 / interlaced=0 / bluray_compat=0 / constrained_intra=0 / bframes=4 / b_pyramid=2 / b_adapt=2 / b_bias=0 / direct=3 / weightb=1 / open_gop=0 / weightp=2 / keyint=240 / keyint_min=22 / scenecut=40 / intra_refresh=0 / rc_lookahead=45 / rc=crf / mbtree=1 / crf=18.0 / qcomp=0.60 / qpmin=10 / qpmax=51 / qpstep=4 / vbv_maxrate=62500 / vbv_bufsize=78125 / crf_max=0.0 / nal_hrd=none / filler=0 / ip_ratio=1.40 / aq=1:1.00
  36. Language                    : Spanish
  37. Default                     : Yes
  38. Forced                      : No
  39.  
  40. Audio #1
  41. ID                          : 2
  42. Format                      : AC-3
  43. Format/Info                 : Audio Coding 3
  44. Commercial name             : Dolby Digital
  45. Codec ID                    : A_AC3
  46. Duration                    : 1 h 55 min
  47. Bit rate mode               : Constant
  48. Bit rate                    : 640 kb/s
  49. Channel(s)                  : 6 channels
  50. Channel layout              : L R C LFE Ls Rs
  51. Sampling rate               : 48.0 kHz
  52. Frame rate                  : 31.250 FPS (1536 SPF)
  53. Compression mode            : Lossy
  54. Stream size                 : 530 MiB (20%)
  55. Language                    : Spanish
  56. Service kind                : Complete Main
  57. Default                     : Yes
  58. Forced                      : No
  59.  
  60. Audio #2
  61. ID                          : 3
  62. Format                      : AC-3
  63. Format/Info                 : Audio Coding 3
  64. Commercial name             : Dolby Digital
  65. Codec ID                    : A_AC3
  66. Duration                    : 1 h 55 min
  67. Bit rate mode               : Constant
  68. Bit rate                    : 384 kb/s
  69. Channel(s)                  : 6 channels
  70. Channel layout              : L R C LFE Ls Rs
  71. Sampling rate               : 48.0 kHz
  72. Frame rate                  : 31.250 FPS (1536 SPF)
  73. Compression mode            : Lossy
  74. Stream size                 : 318 MiB (12%)
  75. Language                    : Chinese
  76. Service kind                : Complete Main
  77. Default                     : No
  78. Forced                      : No
  79.  
  80. Text
  81. ID                          : 4
  82. Format                      : UTF-8
  83. Codec ID                    : S_TEXT/UTF8
  84. Codec ID/Info               : UTF-8 Plain Text
  85. Duration                    : 1 h 44 min
  86. Bit rate                    : 31 b/s
  87. Count of elements           : 899
  88. Stream size                 : 24.1 KiB (0%)
  89. Language                    : Spanish
  90. Default                     : No
  91. Forced                      : No
  92.  
  93. Menu
  94. 00:00:00.000                : :Capítulo 01
  95. 00:09:44.000                : :Capítulo 02
  96. 00:19:40.000                : :Capítulo 03
  97. 00:24:42.000                : :Capítulo 04
  98. 00:30:19.000                : :Capítulo 05
  99. 00:41:09.000                : :Capítulo 06
  100. 00:48:44.500                : :Capítulo 07
  101. 00:56:33.000                : :Capítulo 08
  102. 01:05:01.500                : :Capítulo 09
  103. 01:09:07.000                : :Capítulo 10
  104. 01:14:36.000                : :Capítulo 11
  105. 01:23:28.500                : :Capítulo 12
  106. 01:28:09.500                : :Capítulo 13
  107. 01:32:43.500                : :Capítulo 14
  108. 01:43:16.000                : :Capítulo 15
RAW Paste Data
We use cookies for various purposes including analytics. By continuing to use Pastebin, you agree to our use of cookies as described in the Cookies Policy. OK, I Understand
 
Top