SHARE
TWEET

Untitled

a guest Nov 18th, 2019 75 Never
Not a member of Pastebin yet? Sign Up, it unlocks many cool features!
  1. [20:26:11] gtkgui: HandBrake 1.3.0 (2019111100) - Linux x86_64 - https://handbrake.fr
  2. Cannot load libnvidia-encode.so.1
  3. [20:26:11] hb_init: starting libhb thread
  4. [20:26:11] hb_init: starting libhb thread
  5. [20:26:11] hb_init: starting libhb thread
  6. [20:26:29] CPU: AMD Ryzen 9 3900X 12-Core Processor            
  7. [20:26:29]  - logical processor count: 24
  8. [20:26:29] Intel Quick Sync Video support: no
  9. [20:26:29] hb_scan: path=/run/user/1000/gvfs/smb-share:server=safe,share=dokumente/Zu Erledigen/MakeMKV/***/***.mkv, title_index=0
  10. udfread ERROR: ECMA 167 Volume Recognition failed
  11. disc.c:323: failed opening UDF image /run/user/1000/gvfs/smb-share:server=safe,share=dokumente/Zu Erledigen/MakeMKV/***/***.mkv
  12. disc.c:424: error opening file BDMV/index.bdmv
  13. disc.c:424: error opening file BDMV/BACKUP/index.bdmv
  14. bluray.c:2585: nav_get_title_list(/run/user/1000/gvfs/smb-share:server=safe,share=dokumente/Zu Erledigen/MakeMKV/***/***.mkv/) failed
  15. [20:26:29] bd: not a bd - trying as a stream/file instead
  16. libdvdnav: Using dvdnav version 6.0.1
  17. libdvdread:DVDOpenFileUDF:UDFFindFile /VIDEO_TS/VIDEO_TS.IFO failed
  18. libdvdread:DVDOpenFileUDF:UDFFindFile /VIDEO_TS/VIDEO_TS.BUP failed
  19. libdvdread: Can't open file VIDEO_TS.IFO.
  20. libdvdnav: vm: failed to read VIDEO_TS.IFO
  21. [20:26:30] dvd: not a dvd - trying as a stream/file instead
  22. Input #0, matroska,webm, from '/run/user/1000/gvfs/smb-share:server=safe,share=dokumente/Zu Erledigen/MakeMKV/***/***.mkv':
  23.   Metadata:
  24.     title           : ***
  25.     encoder         : libmakemkv v1.14.5 (1.3.5/1.4.7) x86_64-pc-linux-gnu
  26.     creation_time   : 2019-11-18T15:37:37.000000Z
  27.   Duration: 01:57:09.44, start: 0.000000, bitrate: 31392 kb/s
  28.     Chapter #0:0: start 0,000000, end 689,397042
  29.     Metadata:
  30.       title           : Chapter 01
  31.     Chapter #0:1: start 689,397042, end 1345,469125
  32.     Metadata:
  33.       title           : Chapter 02
  34.     Chapter #0:2: start 1345,469125, end 1915,038125
  35.     Metadata:
  36.       title           : Chapter 03
  37.     Chapter #0:3: start 1915,038125, end 2626,373750
  38.     Metadata:
  39.       title           : Chapter 04
  40.     Chapter #0:4: start 2626,373750, end 3036,575208
  41.     Metadata:
  42.       title           : Chapter 05
  43.     Chapter #0:5: start 3036,575208, end 3615,278333
  44.     Metadata:
  45.       title           : Chapter 06
  46.     Chapter #0:6: start 3615,278333, end 4253,540958
  47.     Metadata:
  48.       title           : Chapter 07
  49.     Chapter #0:7: start 4253,540958, end 4771,808708
  50.     Metadata:
  51.       title           : Chapter 08
  52.     Chapter #0:8: start 4771,808708, end 5442,311875
  53.     Metadata:
  54.       title           : Chapter 09
  55.     Chapter #0:9: start 5442,311875, end 5898,350792
  56.     Metadata:
  57.       title           : Chapter 10
  58.     Chapter #0:10: start 5898,350792, end 6740,275208
  59.     Metadata:
  60.       title           : Chapter 11
  61.     Chapter #0:11: start 6740,275208, end 7028,021000
  62.     Metadata:
  63.       title           : Chapter 12
  64.     Chapter #0:12: start 7028,021000, end 7029,439083
  65.     Metadata:
  66.       title           : Chapter 13
  67.     Stream #0:0(eng): Video: h264 (High), yuv420p(progressive), 1920x1080 [SAR 1:1 DAR 16:9], 23,98 fps, 23,98 tbr, 1k tbn, 47,95 tbc
  68.     Metadata:
  69.       BPS-eng         : 27854631
  70.       DURATION-eng    : 01:57:09.439083333
  71.       NUMBER_OF_FRAMES-eng: 168538
  72.       NUMBER_OF_BYTES-eng: 24475304494
  73.       SOURCE_ID-eng   : 001011
  74.       _STATISTICS_WRITING_APP-eng: MakeMKV v1.14.5 linux(x64-release)
  75.       _STATISTICS_WRITING_DATE_UTC-eng: 2019-11-18 15:37:37
  76.       _STATISTICS_TAGS-eng: BPS DURATION NUMBER_OF_FRAMES NUMBER_OF_BYTES SOURCE_ID
  77.     Stream #0:1(deu): Audio: dts (DTS-HD MA), 48000 Hz, stereo, s32p (24 bit) (default)
  78.     Metadata:
  79.       title           : Stereo
  80.       BPS-eng         : 2003065
  81.       DURATION-eng    : 01:57:08.437333333
  82.       NUMBER_OF_FRAMES-eng: 658916
  83.       NUMBER_OF_BYTES-eng: 1759802248
  84.       SOURCE_ID-eng   : 001101
  85.       _STATISTICS_WRITING_APP-eng: MakeMKV v1.14.5 linux(x64-release)
  86.       _STATISTICS_WRITING_DATE_UTC-eng: 2019-11-18 15:37:37
  87.       _STATISTICS_TAGS-eng: BPS DURATION NUMBER_OF_FRAMES NUMBER_OF_BYTES SOURCE_ID
  88.     Stream #0:2(deu): Audio: dts (DTS), 48000 Hz, stereo, fltp, 1536 kb/s
  89.     Metadata:
  90.       title           : Stereo
  91.       BPS-eng         : 1509000
  92.       DURATION-eng    : 01:57:08.437333333
  93.       NUMBER_OF_FRAMES-eng: 658916
  94.       NUMBER_OF_BYTES-eng: 1325738992
  95.       SOURCE_ID-eng   : 001101
  96.       _STATISTICS_WRITING_APP-eng: MakeMKV v1.14.5 linux(x64-release)
  97.       _STATISTICS_WRITING_DATE_UTC-eng: 2019-11-18 15:37:37
  98.       _STATISTICS_TAGS-eng: BPS DURATION NUMBER_OF_FRAMES NUMBER_OF_BYTES SOURCE_ID
  99.     Stream #0:3(deu): Subtitle: hdmv_pgs_subtitle
  100.     Metadata:
  101.       BPS-eng         : 22641
  102.       DURATION-eng    : 01:56:19.743604166
  103.       NUMBER_OF_FRAMES-eng: 1812
  104.       NUMBER_OF_BYTES-eng: 19754056
  105.       SOURCE_ID-eng   : 001200
  106.       _STATISTICS_WRITING_APP-eng: MakeMKV v1.14.5 linux(x64-release)
  107.       _STATISTICS_WRITING_DATE_UTC-eng: 2019-11-18 15:37:37
  108.       _STATISTICS_TAGS-eng: BPS DURATION NUMBER_OF_FRAMES NUMBER_OF_BYTES SOURCE_ID
  109. [20:26:31] scan: decoding previews for title 1
  110. [20:26:31] scan: audio 0x1: dca, rate=48000Hz, bitrate=1 Deutsch (DTS-HD MA) (2.0 ch)
  111. [20:26:31] scan: audio 0x2: dca, rate=48000Hz, bitrate=1536000 Deutsch (DTS) (2.0 ch) (1536 kbps)
  112. [20:26:34] scan: 10 previews, 1920x1080, 23,976 fps, autocrop = 20/20/2/0, aspect 16:9, PAR 1:1
  113. [20:26:34] scan: supported video decoders: avcodec qsv
  114. [20:26:34] libhb: scan thread found 1 valid title(s)
  115. [20:26:55] gtkgui: Custom Preset: /Matroska/H.265 Filme HD
  116. [20:26:55] Starting work at: Mon Nov 18 20:26:55 2019
  117.  
  118. [20:26:55] 1 job(s) to process
  119. [20:26:55] json job:
  120. {
  121.     "Audio": {
  122.         "AudioList": [
  123.             {
  124.                 "Bitrate": 0,
  125.                 "DRC": 0.0,
  126.                 "Encoder": "copy:dtshd",
  127.                 "Mixdown": "none",
  128.                 "Name": "Stereo",
  129.                 "PresetEncoder": "copy",
  130.                 "Quality": -3.0,
  131.                 "Samplerate": 0,
  132.                 "Track": 0
  133.             }
  134.         ],
  135.         "CopyMask": [
  136.             "copy:mp3",
  137.             "copy:aac",
  138.             "copy:ac3",
  139.             "copy:dts",
  140.             "copy:dtshd",
  141.             "copy:eac3",
  142.             "copy:flac",
  143.             "copy:truehd"
  144.         ],
  145.         "FallbackEncoder": "av_aac"
  146.     },
  147.     "Destination": {
  148.         "AlignAVStart": false,
  149.         "ChapterList": [
  150.             {
  151.                 "Duration": {
  152.                     "Hours": 0,
  153.                     "Minutes": 11,
  154.                     "Seconds": 29,
  155.                     "Ticks": 62045733
  156.                 },
  157.                 "Name": "Chapter 1"
  158.             },
  159.             {
  160.                 "Duration": {
  161.                     "Hours": 0,
  162.                     "Minutes": 10,
  163.                     "Seconds": 56,
  164.                     "Ticks": 59046488
  165.                 },
  166.                 "Name": "Chapter 2"
  167.             },
  168.             {
  169.                 "Duration": {
  170.                     "Hours": 0,
  171.                     "Minutes": 9,
  172.                     "Seconds": 30,
  173.                     "Ticks": 51261210
  174.                 },
  175.                 "Name": "Chapter 3"
  176.             },
  177.             {
  178.                 "Duration": {
  179.                     "Hours": 0,
  180.                     "Minutes": 11,
  181.                     "Seconds": 51,
  182.                     "Ticks": 64020206
  183.                 },
  184.                 "Name": "Chapter 4"
  185.             },
  186.             {
  187.                 "Duration": {
  188.                     "Hours": 0,
  189.                     "Minutes": 6,
  190.                     "Seconds": 50,
  191.                     "Ticks": 36918131
  192.                 },
  193.                 "Name": "Chapter 5"
  194.             },
  195.             {
  196.                 "Duration": {
  197.                     "Hours": 0,
  198.                     "Minutes": 9,
  199.                     "Seconds": 39,
  200.                     "Ticks": 52083281
  201.                 },
  202.                 "Name": "Chapter 6"
  203.             },
  204.             {
  205.                 "Duration": {
  206.                     "Hours": 0,
  207.                     "Minutes": 10,
  208.                     "Seconds": 38,
  209.                     "Ticks": 57443637
  210.                 },
  211.                 "Name": "Chapter 7"
  212.             },
  213.             {
  214.                 "Duration": {
  215.                     "Hours": 0,
  216.                     "Minutes": 8,
  217.                     "Seconds": 38,
  218.                     "Ticks": 46644097
  219.                 },
  220.                 "Name": "Chapter 8"
  221.             },
  222.             {
  223.                 "Duration": {
  224.                     "Hours": 0,
  225.                     "Minutes": 11,
  226.                     "Seconds": 11,
  227.                     "Ticks": 60345285
  228.                 },
  229.                 "Name": "Chapter 9"
  230.             },
  231.             {
  232.                 "Duration": {
  233.                     "Hours": 0,
  234.                     "Minutes": 7,
  235.                     "Seconds": 36,
  236.                     "Ticks": 41043503
  237.                 },
  238.                 "Name": "Chapter 10"
  239.             },
  240.             {
  241.                 "Duration": {
  242.                     "Hours": 0,
  243.                     "Minutes": 14,
  244.                     "Seconds": 2,
  245.                     "Ticks": 75773197
  246.                 },
  247.                 "Name": "Chapter 11"
  248.             },
  249.             {
  250.                 "Duration": {
  251.                     "Hours": 0,
  252.                     "Minutes": 4,
  253.                     "Seconds": 48,
  254.                     "Ticks": 25897122
  255.                 },
  256.                 "Name": "Chapter 12"
  257.             },
  258.             {
  259.                 "Duration": {
  260.                     "Hours": 0,
  261.                     "Minutes": 0,
  262.                     "Seconds": 1,
  263.                     "Ticks": 127620
  264.                 },
  265.                 "Name": "Chapter 13"
  266.             }
  267.         ],
  268.         "ChapterMarkers": true,
  269.         "File": "/home/oli/Videos/Handbrake/***.mkv",
  270.         "InlineParameterSets": false,
  271.         "Mp4Options": {
  272.             "IpodAtom": false,
  273.             "Mp4Optimize": false
  274.         },
  275.         "Mux": "mkv"
  276.     },
  277.     "Filters": {
  278.         "FilterList": [
  279.             {
  280.                 "ID": 6,
  281.                 "Settings": {
  282.                     "mode": 0
  283.                 }
  284.             },
  285.             {
  286.                 "ID": 12,
  287.                 "Settings": {
  288.                     "crop-bottom": 20,
  289.                     "crop-left": 2,
  290.                     "crop-right": 0,
  291.                     "crop-top": 20,
  292.                     "height": 1040,
  293.                     "width": 1918
  294.                 }
  295.             }
  296.         ]
  297.     },
  298.     "Metadata": {
  299.         "Name": "***"
  300.     },
  301.     "PAR": {
  302.         "Den": 1,
  303.         "Num": 1
  304.     },
  305.     "SequenceID": 0,
  306.     "Source": {
  307.         "Angle": 0,
  308.         "Path": "/run/user/1000/gvfs/smb-share:server=safe,share=dokumente/Zu Erledigen/MakeMKV/***.mkv",
  309.         "Range": {
  310.             "End": 13,
  311.             "Start": 1,
  312.             "Type": "chapter"
  313.         },
  314.         "Title": 1
  315.     },
  316.     "Subtitle": {
  317.         "Search": {
  318.             "Burn": true,
  319.             "Default": false,
  320.             "Enable": false,
  321.             "Forced": false
  322.         },
  323.         "SubtitleList": [
  324.             {
  325.                 "Burn": false,
  326.                 "Default": false,
  327.                 "Forced": false,
  328.                 "Track": 0
  329.             }
  330.         ]
  331.     },
  332.     "Video": {
  333.         "ColorFormat": 0,
  334.         "ColorMatrix": 1,
  335.         "ColorPrimaries": 1,
  336.         "ColorRange": 0,
  337.         "ColorTransfer": 1,
  338.         "Encoder": "x265",
  339.         "Level": "5.1",
  340.         "Options": "strong-intra-smoothing=0:rect=0",
  341.         "Preset": "slow",
  342.         "Profile": "main",
  343.         "QSV": {
  344.             "AsyncDepth": 4,
  345.             "Decode": false
  346.         },
  347.         "Quality": 20.0,
  348.         "Tune": "",
  349.         "Turbo": false,
  350.         "TwoPass": false
  351.     }
  352. }
  353. [20:26:55] CPU: AMD Ryzen 9 3900X 12-Core Processor            
  354. [20:26:55]  - logical processor count: 24
  355. [20:26:55] Intel Quick Sync Video support: no
  356. [20:26:55] hb_scan: path=/run/user/1000/gvfs/smb-share:server=safe,share=dokumente/Zu Erledigen/MakeMKV/***/***.mkv, title_index=1
  357. udfread ERROR: ECMA 167 Volume Recognition failed
  358. disc.c:323: failed opening UDF image /run/user/1000/gvfs/smb-share:server=safe,share=dokumente/Zu Erledigen/MakeMKV/***/***.mkv
  359. disc.c:424: error opening file BDMV/index.bdmv
  360. disc.c:424: error opening file BDMV/BACKUP/index.bdmv
  361. bluray.c:2585: nav_get_title_list(/run/user/1000/gvfs/smb-share:server=safe,share=dokumente/Zu Erledigen/MakeMKV/***/***.mkv/) failed
  362. [20:26:56] bd: not a bd - trying as a stream/file instead
  363. libdvdnav: Using dvdnav version 6.0.1
  364. libdvdread:DVDOpenFileUDF:UDFFindFile /VIDEO_TS/VIDEO_TS.IFO failed
  365. libdvdread:DVDOpenFileUDF:UDFFindFile /VIDEO_TS/VIDEO_TS.BUP failed
  366. libdvdread: Can't open file VIDEO_TS.IFO.
  367. libdvdnav: vm: failed to read VIDEO_TS.IFO
  368. [20:26:56] dvd: not a dvd - trying as a stream/file instead
  369. Input #0, matroska,webm, from '/run/user/1000/gvfs/smb-share:server=safe,share=dokumente/Zu Erledigen/MakeMKV/***/***.mkv':
  370.   Metadata:
  371.     title           : ***
  372.     encoder         : libmakemkv v1.14.5 (1.3.5/1.4.7) x86_64-pc-linux-gnu
  373.     creation_time   : 2019-11-18T15:37:37.000000Z
  374.   Duration: 01:57:09.44, start: 0.000000, bitrate: 31392 kb/s
  375.     Chapter #0:0: start 0,000000, end 689,397042
  376.     Metadata:
  377.       title           : Chapter 01
  378.     Chapter #0:1: start 689,397042, end 1345,469125
  379.     Metadata:
  380.       title           : Chapter 02
  381.     Chapter #0:2: start 1345,469125, end 1915,038125
  382.     Metadata:
  383.       title           : Chapter 03
  384.     Chapter #0:3: start 1915,038125, end 2626,373750
  385.     Metadata:
  386.       title           : Chapter 04
  387.     Chapter #0:4: start 2626,373750, end 3036,575208
  388.     Metadata:
  389.       title           : Chapter 05
  390.     Chapter #0:5: start 3036,575208, end 3615,278333
  391.     Metadata:
  392.       title           : Chapter 06
  393.     Chapter #0:6: start 3615,278333, end 4253,540958
  394.     Metadata:
  395.       title           : Chapter 07
  396.     Chapter #0:7: start 4253,540958, end 4771,808708
  397.     Metadata:
  398.       title           : Chapter 08
  399.     Chapter #0:8: start 4771,808708, end 5442,311875
  400.     Metadata:
  401.       title           : Chapter 09
  402.     Chapter #0:9: start 5442,311875, end 5898,350792
  403.     Metadata:
  404.       title           : Chapter 10
  405.     Chapter #0:10: start 5898,350792, end 6740,275208
  406.     Metadata:
  407.       title           : Chapter 11
  408.     Chapter #0:11: start 6740,275208, end 7028,021000
  409.     Metadata:
  410.       title           : Chapter 12
  411.     Chapter #0:12: start 7028,021000, end 7029,439083
  412.     Metadata:
  413.       title           : Chapter 13
  414.     Stream #0:0(eng): Video: h264 (High), yuv420p(progressive), 1920x1080 [SAR 1:1 DAR 16:9], 23,98 fps, 23,98 tbr, 1k tbn, 47,95 tbc
  415.     Metadata:
  416.       BPS-eng         : 27854631
  417.       DURATION-eng    : 01:57:09.439083333
  418.       NUMBER_OF_FRAMES-eng: 168538
  419.       NUMBER_OF_BYTES-eng: 24475304494
  420.       SOURCE_ID-eng   : 001011
  421.       _STATISTICS_WRITING_APP-eng: MakeMKV v1.14.5 linux(x64-release)
  422.       _STATISTICS_WRITING_DATE_UTC-eng: 2019-11-18 15:37:37
  423.       _STATISTICS_TAGS-eng: BPS DURATION NUMBER_OF_FRAMES NUMBER_OF_BYTES SOURCE_ID
  424.     Stream #0:1(deu): Audio: dts (DTS-HD MA), 48000 Hz, stereo, s32p (24 bit) (default)
  425.     Metadata:
  426.       title           : Stereo
  427.       BPS-eng         : 2003065
  428.       DURATION-eng    : 01:57:08.437333333
  429.       NUMBER_OF_FRAMES-eng: 658916
  430.       NUMBER_OF_BYTES-eng: 1759802248
  431.       SOURCE_ID-eng   : 001101
  432.       _STATISTICS_WRITING_APP-eng: MakeMKV v1.14.5 linux(x64-release)
  433.       _STATISTICS_WRITING_DATE_UTC-eng: 2019-11-18 15:37:37
  434.       _STATISTICS_TAGS-eng: BPS DURATION NUMBER_OF_FRAMES NUMBER_OF_BYTES SOURCE_ID
  435.     Stream #0:2(deu): Audio: dts (DTS), 48000 Hz, stereo, fltp, 1536 kb/s
  436.     Metadata:
  437.       title           : Stereo
  438.       BPS-eng         : 1509000
  439.       DURATION-eng    : 01:57:08.437333333
  440.       NUMBER_OF_FRAMES-eng: 658916
  441.       NUMBER_OF_BYTES-eng: 1325738992
  442.       SOURCE_ID-eng   : 001101
  443.       _STATISTICS_WRITING_APP-eng: MakeMKV v1.14.5 linux(x64-release)
  444.       _STATISTICS_WRITING_DATE_UTC-eng: 2019-11-18 15:37:37
  445.       _STATISTICS_TAGS-eng: BPS DURATION NUMBER_OF_FRAMES NUMBER_OF_BYTES SOURCE_ID
  446.     Stream #0:3(deu): Subtitle: hdmv_pgs_subtitle
  447.     Metadata:
  448.       BPS-eng         : 22641
  449.       DURATION-eng    : 01:56:19.743604166
  450.       NUMBER_OF_FRAMES-eng: 1812
  451.       NUMBER_OF_BYTES-eng: 19754056
  452.       SOURCE_ID-eng   : 001200
  453.       _STATISTICS_WRITING_APP-eng: MakeMKV v1.14.5 linux(x64-release)
  454.       _STATISTICS_WRITING_DATE_UTC-eng: 2019-11-18 15:37:37
  455.       _STATISTICS_TAGS-eng: BPS DURATION NUMBER_OF_FRAMES NUMBER_OF_BYTES SOURCE_ID
  456. [20:26:57] scan: decoding previews for title 1
  457. [20:26:58] scan: audio 0x1: dca, rate=48000Hz, bitrate=1 Deutsch (DTS-HD MA) (2.0 ch)
  458. [20:26:58] scan: audio 0x2: dca, rate=48000Hz, bitrate=1536000 Deutsch (DTS) (2.0 ch) (1536 kbps)
  459. [20:27:00] scan: 10 previews, 1920x1080, 23,976 fps, autocrop = 20/20/2/0, aspect 16:9, PAR 1:1
  460. [20:27:00] scan: supported video decoders: avcodec qsv
  461. [20:27:00] libhb: scan thread found 1 valid title(s)
  462. [20:27:00] Starting Task: Encoding Pass
  463. [20:27:00] Skipping vfr filter
  464. [20:27:00] job configuration:
  465. [20:27:00]  * source
  466. [20:27:00]    + /run/user/1000/gvfs/smb-share:server=safe,share=dokumente/Zu Erledigen/MakeMKV/***/***.mkv
  467. [20:27:00]    + title 1, chapter(s) 1 to 13
  468. [20:27:00]    + container: matroska,webm
  469. [20:27:00]    + data rate: 31392 kbps
  470. [20:27:00]  * destination
  471. [20:27:00]    + /home/oli/Videos/Handbrake/***.mkv
  472. [20:27:00]    + container: Matroska (libavformat)
  473. [20:27:00]      + chapter markers
  474. [20:27:00]  * video track
  475. [20:27:00]    + decoder: h264
  476. [20:27:00]    + filters
  477. [20:27:00]      + Crop and Scale (width=1918:height=1040:crop-top=20:crop-bottom=20:crop-left=2:crop-right=0)
  478. [20:27:00]        + source: 1920 * 1080, crop (20/20/2/0): 1918 * 1040, scale: 1918 * 1040
  479. [20:27:00]    + Output geometry
  480. [20:27:00]      + storage dimensions: 1918 x 1040
  481. [20:27:00]      + pixel aspect ratio: 1 : 1
  482. [20:27:00]      + display dimensions: 1918 x 1040
  483. [20:27:00]    + encoder: H.265 (libx265)
  484. [20:27:00]      + preset:  slow
  485. [20:27:00]      + options: strong-intra-smoothing=0:rect=0
  486. [20:27:00]      + profile: main
  487. [20:27:00]      + level:   5.1
  488. [20:27:00]      + quality: 20,00 (RF)
  489. [20:27:00]      + color profile: 1-1-1
  490. [20:27:00]  * subtitle track 1, Deutsch [PGS] (track 0, id 0x3, Picture) -> Passthrough
  491. [20:27:00]  * audio track 1
  492. [20:27:00]    + name: Stereo
  493. [20:27:00]    + decoder: Deutsch (DTS-HD MA) (2.0 ch) (track 1, id 0x1)
  494. [20:27:00]      + samplerate: 48000 Hz
  495. [20:27:00]    + DTS-HD Passthru
  496. [20:27:01] sync: expecting 168537 video frames
  497. [20:27:01] encx265: bad argument 'level-idc=5.1'
  498. [20:27:01] Failure to initialise thread 'H.265/HEVC encoder (libx265)'
  499. [20:27:01] dca-decoder done: 0 frames, 0 decoder errors
  500. [20:27:01] h264-decoder done: 0 frames, 0 decoder errors
  501. [20:27:01] sync: got 0 frames, 168537 expected
  502. [20:27:01] Finished work at: Mon Nov 18 20:27:01 2019
  503.  
  504. [20:27:01] libhb: work result = 3
RAW Paste Data
We use cookies for various purposes including analytics. By continuing to use Pastebin, you agree to our use of cookies as described in the Cookies Policy. OK, I Understand
Not a member of Pastebin yet?
Sign Up, it unlocks many cool features!
 
Top