GrabHD

Untitled

Mar 16th, 2020
151
Never
Not a member of Pastebin yet? Sign Up, it unlocks many cool features!
  1. Общее
  2. Уникальный идентификатор : 213988226174800035929127855891282491514 (0xA0FCA21CE906EC82AA284BF2A819787A)
  3. Полное имя : D:\Раздача\Shahmatist.2019.BDRip-AVC.ExKinoRay.mkv
  4. Формат : Matroska
  5. Версия формата : Version 4 / Version 2
  6. Размер файла : 2,04 Гбайт
  7. Продолжительность : 1 ч. 48 м.
  8. Общий поток : 2709 Кбит/сек
  9. Название фильма : Fahim 2019 BDRip-AVC.ExKinoRay & grab777
  10. Дата кодирования : UTC 2020-03-16 18:29:29
  11. Программа кодирования : mkvmerge v7.3.0 ('Nouages') 64bit built on Oct 22 2014 18:53:34
  12. Библиотека кодирования : libebml v1.3.0 + libmatroska v1.4.1
  13.  
  14. Видео
  15. Идентификатор : 1
  16. Формат : AVC
  17. Формат/Информация : Advanced Video Codec
  18. Профиль формата : High@L4.1
  19. Настройки формата : CABAC / 12 Ref Frames
  20. Параметр CABAC формата : Да
  21. Параметр RefFrames формата : 12 кадров
  22. Идентификатор кодека : V_MPEG4/ISO/AVC
  23. Продолжительность : 1 ч. 48 м.
  24. Битрейт : 1877 Кбит/сек
  25. Ширина : 1024 пикселя
  26. Высота : 432 пикселя
  27. Соотношение сторон : 2,40:1
  28. Соотношение сторон в оригинале : 2,40:1
  29. Режим частоты кадров : Переменный
  30. Частота кадров : 23,976 (23976/1000) кадра/сек
  31. Цветовое пространство : YUV
  32. Субдискретизация насыщенности : 4:2:0
  33. Битовая глубина : 8 бит
  34. Тип развёртки : Прогрессивная
  35. Бит/(Пиксели*Кадры) : 0.177
  36. Размер потока : 1,42 Гбайт (69%)
  37. Заголовок : Rip by grab777
  38. Библиотека кодирования : x264 core 148 r2665M a01e339
  39. Настройки программы : cabac=1 / ref=12 / deblock=1:-2:-2 / analyse=0x3:0x133 / me=umh / subme=10 / psy=1 / psy_rd=1.00:0.05 / mixed_ref=1 / me_range=32 / chroma_me=1 / trellis=2 / 8x8dct=1 / cqm=0 / deadzone=21,11 / fast_pskip=0 / chroma_qp_offset=-3 / threads=5 / lookahead_threads=1 / sliced_threads=0 / nr=0 / decimate=1 / interlaced=0 / bluray_compat=0 / constrained_intra=0 / bframes=10 / b_pyramid=2 / b_adapt=2 / b_bias=0 / direct=3 / weightb=1 / open_gop=0 / weightp=2 / keyint=230 / keyint_min=23 / scenecut=40 / intra_refresh=0 / rc_lookahead=40 / rc=crf / mbtree=1 / crf=17.9 / qcomp=0.90 / qpmin=1 / qpmax=69 / qpstep=4 / vbv_maxrate=40000 / vbv_bufsize=30000 / crf_max=0.0 / nal_hrd=none / filler=0 / ip_ratio=1.40 / aq=1:0.00
  40. Язык : German
  41. Default : Да
  42. Forced : Нет
  43.  
  44. Аудио #1
  45. Идентификатор : 2
  46. Формат : AC-3
  47. Формат/Информация : Audio Coding 3
  48. Параметр Endianness формата : Big
  49. Идентификатор кодека : A_AC3
  50. Продолжительность : 1 ч. 47 м.
  51. Вид битрейта : Постоянный
  52. Битрейт : 384 Кбит/сек
  53. Каналы : 6 каналов
  54. Расположение каналов : Front: L C R, Side: L R, LFE
  55. Частота : 48,0 КГц
  56. Частота кадров : 31,250 кадров/сек (1536 SPF)
  57. Битовая глубина : 16 бит
  58. Метод сжатия : С потерями
  59. Размер потока : 296 Мбайт (14%)
  60. Заголовок : Dub (iTunes)
  61. Язык : Russian
  62. ServiceKind/String : Complete Main
  63. Default : Да
  64. Forced : Да
  65.  
  66. Аудио #2
  67. Идентификатор : 3
  68. Формат : AC-3
  69. Формат/Информация : Audio Coding 3
  70. Параметр Endianness формата : Big
  71. Идентификатор кодека : A_AC3
  72. Продолжительность : 1 ч. 48 м.
  73. Вид битрейта : Постоянный
  74. Битрейт : 448 Кбит/сек
  75. Каналы : 6 каналов
  76. Расположение каналов : Front: L C R, Side: L R, LFE
  77. Частота : 48,0 КГц
  78. Частота кадров : 31,250 кадров/сек (1536 SPF)
  79. Битовая глубина : 16 бит
  80. Метод сжатия : С потерями
  81. Размер потока : 346 Мбайт (17%)
  82. Заголовок : Original
  83. Язык : French
  84. ServiceKind/String : Complete Main
  85. Default : Нет
  86. Forced : Нет
  87.  
  88. Меню
  89. 00:00:00.000 : :Глава 01
  90. 00:08:33.221 : :Глава 02
  91. 00:18:07.461 : :Глава 03
  92. 00:26:29.129 : :Глава 04
  93. 00:35:36.134 : :Глава 05
  94. 00:44:38.801 : :Глава 06
  95. 00:53:43.262 : :Глава 07
  96. 01:01:44.242 : :Глава 08
  97. 01:07:53.903 : :Глава 09
  98. 01:20:31.326 : :Глава 10
  99. 01:30:17.412 : :Глава 11
  100. 01:42:16.339 : :Глава 12
RAW Paste Data