Guest User

Twilight.2008.1080p.BluRay.REMUX.AVC.DTS-HD.MA.5.1-EPSiLON

a guest
May 19th, 2019
48
Never
Not a member of Pastebin yet? Sign Up, it unlocks many cool features!
  1. General
  2. Complete name                            : Twilight.2008.1080p.BluRay.REMUX.AVC.DTS-HD.MA.5.1-EPSiLON.mkv
  3. Format                                   : Matroska
  4. Format version                           : Version 4
  5. File size                                : 31.2 GiB
  6. Duration                                 : 2 h 1 min
  7. Overall bit rate mode                    : Variable
  8. Overall bit rate                         : 36.7 Mb/s
  9. Encoded date                             : UTC 2018-02-16 06:22:56
  10. Writing application                      : mkvmerge v20.0.0 ('I Am The Sun') 64-bit
  11. Writing library                          : libebml v1.3.5 + libmatroska v1.4.8
  12.  
  13. Video
  14. ID                                       : 1
  15. Format                                   : AVC
  16. Format/Info                              : Advanced Video Codec
  17. Format profile                           : High@L4.1
  18. Format settings                          : CABAC / 4 Ref Frames
  19. Format settings, CABAC                   : Yes
  20. Format settings, Reference frames        : 4 frames
  21. Codec ID                                 : V_MPEG4/ISO/AVC
  22. Duration                                 : 2 h 1 min
  23. Bit rate mode                            : Variable
  24. Bit rate                                 : 32.4 Mb/s
  25. Maximum bit rate                         : 34.5 Mb/s
  26. Width                                    : 1 920 pixels
  27. Height                                   : 1 080 pixels
  28. Display aspect ratio                     : 16:9
  29. Frame rate mode                          : Constant
  30. Frame rate                               : 23.976 (24000/1001) FPS
  31. Original frame rate                      : 24.000 FPS
  32. Color space                              : YUV
  33. Chroma subsampling                       : 4:2:0
  34. Bit depth                                : 8 bits
  35. Scan type                                : Progressive
  36. Bits/(Pixel*Frame)                       : 0.652
  37. Stream size                              : 27.6 GiB (88%)
  38. Title                                    : MPEG-4 AVC Video / 32547 kbps / 1080p / 24 fps / 16:9 / High Profile 4.1
  39. Language                                 : English
  40. Default                                  : Yes
  41. Forced                                   : No
  42. Color range                              : Limited
  43. Color primaries                          : BT.709
  44. Transfer characteristics                 : BT.709
  45. Matrix coefficients                      : BT.709
  46.  
  47. Audio #1
  48. ID                                       : 2
  49. Format                                   : DTS XLL
  50. Format/Info                              : Digital Theater Systems
  51. Commercial name                          : DTS-HD Master Audio
  52. Codec ID                                 : A_DTS
  53. Duration                                 : 2 h 1 min
  54. Bit rate mode                            : Variable
  55. Bit rate                                 : 3 986 kb/s
  56. Channel(s)                               : 6 channels
  57. Channel layout                           : C L R Ls Rs LFE
  58. Sampling rate                            : 48.0 kHz
  59. Frame rate                               : 93.750 FPS (512 SPF)
  60. Bit depth                                : 24 bits
  61. Compression mode                         : Lossless
  62. Delay relative to video                  : 2 ms
  63. Stream size                              : 3.39 GiB (11%)
  64. Title                                    : DTS-HD Master Audio / 5.1 / 48 kHz / 3986 kbps / 24-bit
  65. Language                                 : English
  66. Default                                  : Yes
  67. Forced                                   : No
  68.  
  69. Audio #2
  70. ID                                       : 3
  71. Format                                   : AC-3
  72. Format/Info                              : Audio Coding 3
  73. Commercial name                          : Dolby Digital
  74. Codec ID                                 : A_AC3
  75. Duration                                 : 2 h 1 min
  76. Bit rate mode                            : Constant
  77. Bit rate                                 : 192 kb/s
  78. Channel(s)                               : 2 channels
  79. Channel layout                           : L R
  80. Sampling rate                            : 48.0 kHz
  81. Frame rate                               : 31.250 FPS (1536 SPF)
  82. Bit depth                                : 16 bits
  83. Compression mode                         : Lossy
  84. Delay relative to video                  : 23 ms
  85. Stream size                              : 167 MiB (1%)
  86. Title                                    : Commentary by director Catherine Hardwicke and actors Robert Pattinson and Kristen Stewart
  87. Language                                 : English
  88. Service kind                             : Complete Main
  89. Default                                  : No
  90. Forced                                   : No
  91.  
  92. Text #1
  93. ID                                       : 4
  94. Format                                   : PGS
  95. Codec ID                                 : S_HDMV/PGS
  96. Codec ID/Info                            : Picture based subtitle format used on BDs/HD-DVDs
  97. Duration                                 : 2 h 1 min
  98. Bit rate                                 : 37.4 kb/s
  99. Count of elements                        : 3451
  100. Stream size                              : 32.4 MiB (0%)
  101. Title                                    : SDH
  102. Language                                 : English
  103. Default                                  : No
  104. Forced                                   : No
  105.  
  106. Text #2
  107. ID                                       : 5
  108. Format                                   : PGS
  109. Codec ID                                 : S_HDMV/PGS
  110. Codec ID/Info                            : Picture based subtitle format used on BDs/HD-DVDs
  111. Duration                                 : 2 h 1 min
  112. Bit rate                                 : 26.9 kb/s
  113. Count of elements                        : 2692
  114. Stream size                              : 23.3 MiB (0%)
  115. Language                                 : Spanish
  116. Default                                  : No
  117. Forced                                   : No
  118.  
  119. Menu
  120. 00:00:00.000                             : en:Happy Birthday
  121. 00:05:41.716                             : en:Paper Cut
  122. 00:20:50.832                             : en:You Don't Belong in My World
  123. 00:21:56.982                             : en:A Hole in My Chest
  124. 00:30:24.531                             : en:Scrap Metal
  125. 00:31:57.332                             : en:You're Sort of Beautiful
  126. 00:33:48.985                             : en:Bella's Back
  127. 00:35:25.915                             : en:We Can't Be Friends Anymore
  128. 00:50:15.721                             : en:You Are So Mouth-Watering
  129. 00:56:17.082                             : en:Try to Remember
  130. 01:12:13.620                             : en:You're Good with Weird
  131. 01:18:50.058                             : en:Hunting Victoria
  132. 01:29:37.789                             : en:Cliff Diving
  133. 01:35:48.367                             : en:Werewolves Are Not Good Company
  134. 01:47:31.945                             : en:Under the Clock Tower
  135. 01:49:01.117                             : en:This May Hurt Just a Little
  136. 01:50:00.969                             : en:I Don't Know How to Live Without You
RAW Paste Data