Henry_Kr

SMRS-2020

Jun 3rd, 2020
67
Never
Not a member of Pastebin yet? Sign Up, it unlocks many cool features!
  1. Video
  2. ID : 1
  3. Format : AVC
  4. Format/Info : Advanced Video Codec
  5. Format profile : High@L4.1
  6. Format settings : CABAC / 4 Ref Frames
  7. Format settings, CABAC : Yes
  8. Format settings, Reference : 4 frames
  9. Muxing mode : Header stripping
  10. Codec ID : V_MPEG4/ISO/AVC
  11. Duration : 1 h 24 min
  12. Bit rate : 5 907 kb/s
  13. Width : 1 920 pixels
  14. Height : 1 080 pixels
  15. Display aspect ratio : 16:9
  16. Frame rate mode : Constant
  17. Frame rate : 23.976 (24000/1001) FPS
  18. Color space : YUV
  19. Chroma subsampling : 4:2:0
  20. Bit depth : 8 bits
  21. Scan type : Progressive
  22. Bits/(Pixel*Frame) : 0.119
  23. Stream size : 3.39 GiB (74%)
  24. Title : Superman.Red.Son.2020.1080p.BluRay.[CartoonNOW]
  25. Language : English
  26. Default : Yes
  27. Forced : No
  28. Color range : Limited
  29. Matrix coefficients : BT.709
  30.  
  31. Audio #1
  32. ID : 2
  33. Format : AC-3
  34. Format/Info : Audio Coding 3
  35. Commercial name : Dolby Digital
  36. Muxing mode : Header stripping
  37. Codec ID : A_AC3
  38. Duration : 1 h 24 min
  39. Bit rate mode : Constant
  40. Bit rate : 384 kb/s
  41. Channel(s) : 6 channels
  42. Channel layout : L R C LFE Ls Rs
  43. Sampling rate : 48.0 kHz
  44. Frame rate : 31.250 FPS (1536 SPF)
  45. Compression mode : Lossy
  46. Delay relative to video : 684 ms
  47. Stream size : 232 MiB (5%)
  48. Title : AC3 5.1
  49. Language : Portuguese
  50. Service kind : Complete Main
  51. Default : Yes
  52. Forced : No
  53.  
  54. Audio #2
  55. ID : 3
  56. Format : DTS
  57. Format/Info : Digital Theater Systems
  58. Muxing mode : Header stripping
  59. Codec ID : A_DTS
  60. Duration : 1 h 24 min
  61. Bit rate mode : Constant
  62. Bit rate : 1 509 kb/s
  63. Channel(s) : 6 channels
  64. Channel layout : C L R Ls Rs LFE
  65. Sampling rate : 48.0 kHz
  66. Frame rate : 93.750 FPS (512 SPF)
  67. Bit depth : 24 bits
  68. Compression mode : Lossy
  69. Stream size : 910 MiB (19%)
  70. Title : DTS 5.1
  71. Language : English
  72. Default : No
  73. Forced : No
  74.  
  75. Text #1
  76. ID : 4
  77. Format : UTF-8
  78. Codec ID : S_TEXT/UTF8
  79. Codec ID/Info : UTF-8 Plain Text
  80. Title : Forçada
  81. Language : Portuguese
  82. Default : No
  83. Forced : Yes
  84.  
  85. Text #2
  86. ID : 5
  87. Format : UTF-8
  88. Codec ID : S_TEXT/UTF8
  89. Codec ID/Info : UTF-8 Plain Text
  90. Title : Completa
  91. Language : Portuguese
  92. Default : No
  93. Forced : No
  94.  
  95. Menu
  96. 00:00:00.000 : en:Chapter 01
  97. 00:08:15.453 : en:Chapter 02
  98. 00:16:59.852 : en:Chapter 03
  99. 00:27:19.179 : en:Chapter 04
  100. 00:38:09.954 : en:Chapter 05
  101. 00:48:38.374 : en:Chapter 06
  102. 00:56:55.621 : en:Chapter 07
  103. 01:02:34.459 : en:Chapter 08
  104. 01:12:30.596 : en:Chapter 09
  105. 01:21:39.978 : en:Chapter 10
RAW Paste Data