SHARE
TWEET

Hanna: Season 1 WEB-DL 1080p

dirtyharrys May 16th, 2019 66 Never
Not a member of Pastebin yet? Sign Up, it unlocks many cool features!
  1. General
  2. Unique ID                   : 19128722050969650665507857655809855080 (0xE640ECFE2B5AEFA836A242231064E68)
  3. Complete name               : E:\Hanna.S01\H-S01E01.mkv
  4. Format                      : Matroska
  5. Format version              : Version 4
  6. File size                   : 2.10 GiB
  7. Duration                    : 48 min 13 s
  8. Overall bit rate            : 6 235 kb/s
  9. Movie name                  : Hanna S01E01 / Hanna: Season One
  10. Description                 : Episode 01: "Forest"
  11. Encoded date                : UTC 2019-05-08 17:25:41
  12. Writing application         : mkvmerge v30.1.0 ('Forever And More') 32-bit
  13. Writing library             : libebml v1.3.6 + libmatroska v1.4.9
  14. Copyright                   : Movies HDs 2019
  15. ARTIST                      : HarshLearner
  16.  
  17. Video
  18. ID                          : 1
  19. Format                      : AVC
  20. Format/Info                 : Advanced Video Codec
  21. Format profile              : High@L4
  22. Format settings             : CABAC / 4 Ref Frames
  23. Format settings, CABAC      : Yes
  24. Format settings, ReFrames   : 4 frames
  25. Codec ID                    : V_MPEG4/ISO/AVC
  26. Duration                    : 48 min 13 s
  27. Bit rate                    : 4 953 kb/s
  28. Width                       : 1 920 pixels
  29. Height                      : 1 080 pixels
  30. Display aspect ratio        : 16:9
  31. Frame rate mode             : Constant
  32. Frame rate                  : 23.976 (24000/1001) FPS
  33. Color space                 : YUV
  34. Chroma subsampling          : 4:2:0
  35. Bit depth                   : 8 bits
  36. Scan type                   : Progressive
  37. Bits/(Pixel*Frame)          : 0.100
  38. Stream size                 : 1.67 GiB (79%)
  39. Title                       : S01E01: Forest
  40. Default                     : Yes
  41. Forced                      : No
  42. Color range                 : Limited
  43. Color primaries             : BT.709
  44. Transfer characteristics    : BT.709
  45. Matrix coefficients         : BT.709
  46.  
  47. Audio #1
  48. ID                          : 2
  49. Format                      : E-AC-3
  50. Format/Info                 : Enhanced AC-3
  51. Commercial name             : Dolby Digital Plus
  52. Codec ID                    : A_EAC3
  53. Duration                    : 48 min 13 s
  54. Bit rate mode               : Constant
  55. Bit rate                    : 640 kb/s
  56. Channel(s)                  : 6 channels
  57. Channel layout              : L R C LFE Ls Rs
  58. Sampling rate               : 48.0 kHz
  59. Frame rate                  : 31.250 FPS (1536 SPF)
  60. Compression mode            : Lossy
  61. Stream size                 : 221 MiB (10%)
  62. Language                    : English
  63. Service kind                : Complete Main
  64. Default                     : No
  65. Forced                      : No
  66.  
  67. Audio #2
  68. ID                          : 3
  69. Format                      : E-AC-3
  70. Format/Info                 : Enhanced AC-3
  71. Commercial name             : Dolby Digital Plus
  72. Codec ID                    : A_EAC3
  73. Duration                    : 48 min 13 s
  74. Bit rate mode               : Constant
  75. Bit rate                    : 640 kb/s
  76. Channel(s)                  : 6 channels
  77. Channel layout              : L R C LFE Ls Rs
  78. Sampling rate               : 48.0 kHz
  79. Frame rate                  : 31.250 FPS (1536 SPF)
  80. Compression mode            : Lossy
  81. Stream size                 : 221 MiB (10%)
  82. Language                    : Spanish
  83. Service kind                : Complete Main
  84. Default                     : Yes
  85. Forced                      : Yes
  86.  
  87. Text #1
  88. ID                          : 4
  89. Format                      : UTF-8
  90. Codec ID                    : S_TEXT/UTF8
  91. Codec ID/Info               : UTF-8 Plain Text
  92. Duration                    : 47 min 26 s
  93. Bit rate                    : 34 b/s
  94. Count of elements           : 560
  95. Stream size                 : 12.0 KiB (0%)
  96. Title                       : English SDH
  97. Language                    : English
  98. Default                     : No
  99. Forced                      : No
  100.  
  101. Text #2
  102. ID                          : 5
  103. Format                      : UTF-8
  104. Codec ID                    : S_TEXT/UTF8
  105. Codec ID/Info               : UTF-8 Plain Text
  106. Duration                    : 45 min 4 s
  107. Bit rate                    : 22 b/s
  108. Count of elements           : 317
  109. Stream size                 : 7.42 KiB (0%)
  110. Language                    : Spanish
  111. Default                     : Yes
  112. Forced                      : Yes
  113.  
  114. Text #3
  115. ID                          : 6
  116. Format                      : UTF-8
  117. Codec ID                    : S_TEXT/UTF8
  118. Codec ID/Info               : UTF-8 Plain Text
  119. Duration                    : 45 min 4 s
  120. Bit rate                    : 22 b/s
  121. Count of elements           : 316
  122. Stream size                 : 7.58 KiB (0%)
  123. Language                    : French
  124. Default                     : No
  125. Forced                      : No
  126.  
  127. Text #4
  128. ID                          : 7
  129. Format                      : UTF-8
  130. Codec ID                    : S_TEXT/UTF8
  131. Codec ID/Info               : UTF-8 Plain Text
  132. Duration                    : 45 min 4 s
  133. Bit rate                    : 21 b/s
  134. Count of elements           : 317
  135. Stream size                 : 7.24 KiB (0%)
  136. Title                       : Brazilian Portuguese
  137. Language                    : Portuguese
  138. Default                     : No
  139. Forced                      : No
  140.  
  141. Text #5
  142. ID                          : 8
  143. Format                      : UTF-8
  144. Codec ID                    : S_TEXT/UTF8
  145. Codec ID/Info               : UTF-8 Plain Text
  146. Duration                    : 3 s 3 ms
  147. Bit rate                    : 37 b/s
  148. Count of elements           : 1
  149. Stream size                 : 14.0 Bytes (0%)
  150. Language                    : Spanish
  151. Default                     : No
  152. Forced                      : Yes
  153.  
  154. Text #6
  155. ID                          : 9
  156. Format                      : UTF-8
  157. Codec ID                    : S_TEXT/UTF8
  158. Codec ID/Info               : UTF-8 Plain Text
  159. Duration                    : 3 s 3 ms
  160. Bit rate                    : 37 b/s
  161. Count of elements           : 1
  162. Stream size                 : 14.0 Bytes (0%)
  163. Language                    : French
  164. Default                     : No
  165. Forced                      : Yes
  166.  
  167. Text #7
  168. ID                          : 10
  169. Format                      : UTF-8
  170. Codec ID                    : S_TEXT/UTF8
  171. Codec ID/Info               : UTF-8 Plain Text
  172. Duration                    : 3 s 3 ms
  173. Bit rate                    : 37 b/s
  174. Count of elements           : 1
  175. Stream size                 : 14.0 Bytes (0%)
  176. Language                    : Portuguese
  177. Default                     : No
  178. Forced                      : Yes
  179.  
  180. Menu
  181. 00:00:00.000                : en:Amazon Original
  182. 00:00:05.000                : en:A mission to retrieve precious cargo
  183. 00:04:47.000                : en:The hunter and the hunted
  184. 00:10:42.000                : en:Title Sequence
  185. 00:10:49.000                : en:Life lessons never stop
  186. 00:16:06.000                : en:Always questions but never answers
  187. 00:19:59.000                : en:Hanna's curiosity gets the best of her
  188. 00:26:21.000                : en:The line between secrets and lies
  189. 00:28:30.000                : en:Not all people are dangerous
  190. 00:32:35.000                : en:Arvo shows Hanna something amazing
  191. 00:35:16.000                : en:Hanna learns what she's been training for
  192. 00:38:27.000                : en:Government agencies investigate a red flag
  193. 00:40:25.000                : en:The plan is put into motion
  194. 00:46:28.000                : en:End Credits
RAW Paste Data
We use cookies for various purposes including analytics. By continuing to use Pastebin, you agree to our use of cookies as described in the Cookies Policy. OK, I Understand
 
Top