iMN0

world.war.z.2013.2160p.web.h265-naisu.mkv

Jul 16th, 2021
398
Never
Not a member of Pastebin yet? Sign Up, it unlocks many cool features!
  1. General
  2. Unique ID : 43463816882213992701222164285635518953 (0x20B2D39EE18A655F8872FEEDECE961E9)
  3. Complete name : world.war.z.2013.2160p.web.h265-naisu.mkv
  4. Format : Matroska
  5. Format version : Version 4
  6. File size : 11.3 GiB
  7. Duration : 1 h 56 min
  8. Overall bit rate : 14.0 Mb/s
  9. Writing application : mkvmerge v49.0.0 ('Sick Of Losing Soulmates') 64-bit
  10. Writing library : libebml v1.4.0 + libmatroska v1.6.1
  11.  
  12. Video
  13. ID : 1
  14. Format : HEVC
  15. Format/Info : High Efficiency Video Coding
  16. Format profile : Main@L5@High
  17. Codec ID : V_MPEGH/ISO/HEVC
  18. Duration : 1 h 56 min
  19. Bit rate : 13.3 Mb/s
  20. Width : 3 840 pixels
  21. Height : 2 160 pixels
  22. Display aspect ratio : 16:9
  23. Frame rate mode : Constant
  24. Frame rate : 23.976 (24000/1001) FPS
  25. Color space : YUV
  26. Chroma subsampling : 4:2:0
  27. Bit depth : 8 bits
  28. Bits/(Pixel*Frame) : 0.067
  29. Stream size : 10.7 GiB (95%)
  30. Default : Yes
  31. Forced : No
  32. Color range : Limited
  33. Color primaries : BT.709
  34. Transfer characteristics : BT.709
  35. Matrix coefficients : BT.709
  36.  
  37. Audio
  38. ID : 2
  39. Format : E-AC-3
  40. Format/Info : Enhanced AC-3
  41. Commercial name : Dolby Digital Plus
  42. Codec ID : A_EAC3
  43. Duration : 1 h 56 min
  44. Bit rate mode : Constant
  45. Bit rate : 448 kb/s
  46. Channel(s) : 6 channels
  47. Channel layout : L R C LFE Ls Rs
  48. Sampling rate : 48.0 kHz
  49. Frame rate : 31.250 FPS (1536 SPF)
  50. Compression mode : Lossy
  51. Stream size : 372 MiB (3%)
  52. Language : English
  53. Service kind : Complete Main
  54. Default : Yes
  55. Forced : No
  56.  
  57. Text
  58. ID : 3
  59. Format : UTF-8
  60. Codec ID : S_TEXT/UTF8
  61. Codec ID/Info : UTF-8 Plain Text
  62. Title : English
  63. Language : English
  64. Default : No
  65. Forced : No
RAW Paste Data