iMN0

Jaws.3.1983.1080p.BluRay.x264-PSYCHD.mkv

Jul 26th, 2018
48
Never
Not a member of Pastebin yet? Sign Up, it unlocks many cool features!
  1. General
  2. Unique ID : 0 (0x0)
  3. Complete name : Jaws.3.1983.1080p.BluRay.x264-PSYCHD.mkv
  4. Format : Matroska
  5. Format version : Version 4 / Version 2
  6. File size : 9.83 GiB
  7. Duration : 1h 38mn
  8. Overall bit rate : 14.3 Mbps
  9. Encoded date : UTC 2010-02-22 21:41:29
  10. Writing application : no_variable_data
  11. Writing library : no_variable_data
  12.  
  13. Video
  14. ID : 1
  15. Format : AVC
  16. Format/Info : Advanced Video Codec
  17. Format profile : High@L4.1
  18. Format settings, CABAC : Yes
  19. Format settings, ReFrames : 5 frames
  20. Codec ID : V_MPEG4/ISO/AVC
  21. Duration : 1h 38mn
  22. Bit rate : 12.8 Mbps
  23. Width : 1 920 pixels
  24. Height : 808 pixels
  25. Display aspect ratio : 2.40:1
  26. Frame rate mode : Constant
  27. Frame rate : 23.976 (24000/1001) fps
  28. Color space : YUV
  29. Chroma subsampling : 4:2:0
  30. Bit depth : 8 bits
  31. Scan type : Progressive
  32. Bits/(Pixel*Frame) : 0.344
  33. Stream size : 8.60 GiB (87%)
  34. Writing library : x264 core 148 r2692 64f4e24
  35. Encoding settings : cabac=1 / ref=5 / deblock=1:-3:-3 / analyse=0x3:0x113 / me=umh / subme=8 / psy=1 / psy_rd=1.15:0.00 / mixed_ref=1 / me_range=32 / chroma_me=1 / trellis=1 / 8x8dct=1 / cqm=0 / deadzone=21,11 / fast_pskip=1 / chroma_qp_offset=-2 / threads=18 / lookahead_threads=3 / sliced_threads=0 / nr=0 / decimate=1 / interlaced=0 / bluray_compat=0 / constrained_intra=0 / bframes=3 / b_pyramid=2 / b_adapt=2 / b_bias=0 / direct=3 / weightb=1 / open_gop=0 / weightp=2 / keyint=240 / keyint_min=24 / scenecut=40 / intra_refresh=0 / rc_lookahead=50 / rc=2pass / mbtree=1 / bitrate=12812 / ratetol=1.0 / qcomp=0.60 / qpmin=0 / qpmax=69 / qpstep=4 / cplxblur=20.0 / qblur=0.5 / ip_ratio=1.40 / aq=3:0.80
  36. Default : Yes
  37. Forced : No
  38. Statistics Tags Issue : no_variable_data 1970-01-01 00:00:00 / no_variable_data 2010-02-22 21:41:29
  39. FromStats_BitRate : 12800720
  40. FromStats_Duration : 01:38:20.937000000
  41. FromStats_FrameCount : 141481
  42. FromStats_StreamSize : 9442030600
  43.  
  44. Audio
  45. ID : 2
  46. Format : DTS
  47. Format/Info : Digital Theater Systems
  48. Mode : 16
  49. Format settings, Endianness : Big
  50. Codec ID : A_DTS
  51. Duration : 1h 38mn
  52. Bit rate mode : Constant
  53. Bit rate : 1 509 Kbps
  54. Channel(s) : 2 channels
  55. Channel positions : Front: L R
  56. Sampling rate : 48.0 KHz
  57. Frame rate : 93.750 fps (512 spf)
  58. Bit depth : 24 bits
  59. Compression mode : Lossy
  60. Stream size : 1.04 GiB (11%)
  61. Language : English
  62. Default : Yes
  63. Forced : No
  64. Statistics Tags Issue : no_variable_data 1970-01-01 00:00:00 / no_variable_data 2010-02-22 21:41:29
  65. FromStats_BitRate : 1508999
  66. FromStats_Duration : 01:38:20.939000000
  67. FromStats_FrameCount : 553213
  68. FromStats_StreamSize : 1113064556
  69.  
  70. Text #1
  71. ID : 3
  72. Format : UTF-8
  73. Codec ID : S_TEXT/UTF8
  74. Codec ID/Info : UTF-8 Plain Text
  75. Language : English
  76. Default : No
  77. Forced : No
  78. Statistics Tags Issue : no_variable_data 1970-01-01 00:00:00 / no_variable_data 2010-02-22 21:41:29
  79. FromStats_BitRate : 57
  80. FromStats_Duration : 01:32:10.733000000
  81. FromStats_FrameCount : 1178
  82. FromStats_StreamSize : 39742
  83.  
  84. Text #2
  85. ID : 4
  86. Format : UTF-8
  87. Codec ID : S_TEXT/UTF8
  88. Codec ID/Info : UTF-8 Plain Text
  89. Title : SDH
  90. Language : English
  91. Default : No
  92. Forced : No
  93. Statistics Tags Issue : no_variable_data 1970-01-01 00:00:00 / no_variable_data 2010-02-22 21:41:29
  94. FromStats_BitRate : 61
  95. FromStats_Duration : 01:34:24.033000000
  96. FromStats_FrameCount : 1298
  97. FromStats_StreamSize : 43432
  98.  
  99. Menu
  100. 00:00:00.000 : en:00:00:00.000
  101. 00:04:41.490 : en:00:04:41.490
  102. 00:12:55.441 : en:00:12:55.441
  103. 00:17:37.640 : en:00:17:37.640
  104. 00:21:50.017 : en:00:21:50.017
  105. 00:27:01.328 : en:00:27:01.328
  106. 00:32:08.176 : en:00:32:08.176
  107. 00:37:56.191 : en:00:37:56.191
  108. 00:43:36.072 : en:00:43:36.072
  109. 00:48:50.427 : en:00:48:50.427
  110. 00:51:07.398 : en:00:51:07.398
  111. 00:58:03.522 : en:00:58:03.522
  112. 01:01:13.962 : en:01:01:13.962
  113. 01:04:21.941 : en:01:04:21.941
  114. 01:10:05.326 : en:01:10:05.326
  115. 01:15:27.565 : en:01:15:27.565
  116. 01:20:13.100 : en:01:20:13.100
  117. 01:25:02.472 : en:01:25:02.472
  118. 01:30:23.501 : en:01:30:23.501
  119. 01:34:24.117 : en:01:34:24.117
RAW Paste Data