Guest User

Time.Lapse.2014.1080p.BluRay.REMUX.AVC.DTS-HD.MA.5.1-EPSiLON

a guest
May 28th, 2019
45
Never
Not a member of Pastebin yet? Sign Up, it unlocks many cool features!
  1. General
  2. Unique ID                                : 252619324568637341904543303116309783340 (0xBE0CB650E3798CD85CD91A1A4641E32C)
  3. Complete name                            : Time.Lapse.2014.1080p.BluRay.REMUX.AVC.DTS-HD.MA.5.1-EPSiLON.mkv
  4. Format                                   : Matroska
  5. Format version                           : Version 4
  6. File size                                : 15.8 GiB
  7. Duration                                 : 1 h 44 min
  8. Overall bit rate mode                    : Variable
  9. Overall bit rate                         : 21.7 Mb/s
  10. Movie name                               : Time Lapse (2014)
  11. Encoded date                             : UTC 2018-02-05 06:52:43
  12. Writing application                      : mkvmerge v20.0.0 ('I Am The Sun') 64-bit
  13. Writing library                          : libebml v1.3.5 + libmatroska v1.4.8
  14.  
  15. Video
  16. ID                                       : 1
  17. Format                                   : AVC
  18. Format/Info                              : Advanced Video Codec
  19. Format profile                           : High@L4.1
  20. Format settings                          : CABAC / 4 Ref Frames
  21. Format settings, CABAC                   : Yes
  22. Format settings, Reference frames        : 4 frames
  23. Codec ID                                 : V_MPEG4/ISO/AVC
  24. Duration                                 : 1 h 44 min
  25. Bit rate mode                            : Variable
  26. Bit rate                                 : 18.9 Mb/s
  27. Maximum bit rate                         : 37.0 Mb/s
  28. Width                                    : 1 920 pixels
  29. Height                                   : 1 080 pixels
  30. Display aspect ratio                     : 16:9
  31. Frame rate mode                          : Constant
  32. Frame rate                               : 23.976 (24000/1001) FPS
  33. Color space                              : YUV
  34. Chroma subsampling                       : 4:2:0
  35. Bit depth                                : 8 bits
  36. Scan type                                : Progressive
  37. Bits/(Pixel*Frame)                       : 0.381
  38. Stream size                              : 13.8 GiB (87%)
  39. Title                                    : MPEG-4 AVC Video / 18978 kbps / 1080p / 23.976 fps / 16:9 / High Profile 4.1
  40. Language                                 : English
  41. Default                                  : Yes
  42. Forced                                   : No
  43.  
  44. Audio #1
  45. ID                                       : 2
  46. Format                                   : DTS XLL
  47. Format/Info                              : Digital Theater Systems
  48. Commercial name                          : DTS-HD Master Audio
  49. Codec ID                                 : A_DTS
  50. Duration                                 : 1 h 44 min
  51. Bit rate mode                            : Variable
  52. Bit rate                                 : 2 307 kb/s
  53. Channel(s)                               : 6 channels
  54. Channel layout                           : C L R Ls Rs LFE
  55. Sampling rate                            : 48.0 kHz
  56. Frame rate                               : 93.750 FPS (512 SPF)
  57. Bit depth                                : 16 bits
  58. Compression mode                         : Lossless
  59. Stream size                              : 1.68 GiB (11%)
  60. Title                                    : DTS-HD Master Audio / 5.1 / 48 kHz / 2307 kbps / 16-bit
  61. Language                                 : English
  62. Default                                  : Yes
  63. Forced                                   : No
  64.  
  65. Audio #2
  66. ID                                       : 3
  67. Format                                   : AC-3
  68. Format/Info                              : Audio Coding 3
  69. Commercial name                          : Dolby Digital
  70. Codec ID                                 : A_AC3
  71. Duration                                 : 1 h 44 min
  72. Bit rate mode                            : Constant
  73. Bit rate                                 : 192 kb/s
  74. Channel(s)                               : 2 channels
  75. Channel layout                           : L R
  76. Sampling rate                            : 48.0 kHz
  77. Frame rate                               : 31.250 FPS (1536 SPF)
  78. Bit depth                                : 16 bits
  79. Compression mode                         : Lossy
  80. Stream size                              : 143 MiB (1%)
  81. Title                                    : Commentary by Director Bradley King and Producer BP Cooper
  82. Language                                 : English
  83. Service kind                             : Complete Main
  84. Default                                  : No
  85. Forced                                   : No
  86.  
  87. Audio #3
  88. ID                                       : 4
  89. Format                                   : AC-3
  90. Format/Info                              : Audio Coding 3
  91. Commercial name                          : Dolby Digital
  92. Codec ID                                 : A_AC3
  93. Duration                                 : 1 h 44 min
  94. Bit rate mode                            : Constant
  95. Bit rate                                 : 192 kb/s
  96. Channel(s)                               : 2 channels
  97. Channel layout                           : L R
  98. Sampling rate                            : 48.0 kHz
  99. Frame rate                               : 31.250 FPS (1536 SPF)
  100. Bit depth                                : 16 bits
  101. Compression mode                         : Lossy
  102. Stream size                              : 143 MiB (1%)
  103. Title                                    : Filmmaking 101 commentary by Director Bradley King and Producer BP Cooper
  104. Language                                 : English
  105. Service kind                             : Complete Main
  106. Default                                  : No
  107. Forced                                   : No
  108.  
  109. Text
  110. ID                                       : 5
  111. Format                                   : PGS
  112. Codec ID                                 : S_HDMV/PGS
  113. Codec ID/Info                            : Picture based subtitle format used on BDs/HD-DVDs
  114. Duration                                 : 1 h 39 min
  115. Bit rate                                 : 40.4 kb/s
  116. Count of elements                        : 2318
  117. Stream size                              : 28.8 MiB (0%)
  118. Title                                    : SDH
  119. Language                                 : English
  120. Default                                  : No
  121. Forced                                   : No
  122.  
  123. Menu
  124. 00:00:00.000                             : en:Creative Block
  125. 00:04:39.529                             : en:Pictures
  126. 00:14:20.568                             : en:The Party
  127. 00:25:30.404                             : en:"...exactly as we were..."
  128. 00:34:59.597                             : en:The Bookie
  129. 00:44:53.983                             : en:Tonight's Pose
  130. 00:55:05.302                             : en:Warning
  131. 01:00:37.717                             : en:"Tomorrow's photo"
  132. 01:10:58.421                             : en:Dr. Heidecker
  133. 01:18:21.488                             : en:"...she deserves more..."
  134. 01:28:01.735                             : en:One Last Painting
  135. 01:38:57.974                             : en:"...message from Finn..."
RAW Paste Data