SHARE
TWEET

Untitled

a guest Jul 27th, 2017 134 Never
Not a member of Pastebin yet? Sign Up, it unlocks many cool features!
  1. REM DISCID 600CAA07
  2. REM COMMENT "ExactAudioCopy v1.1"
  3. PERFORMER "Unknown Artist"
  4. TITLE "Unknown Title"
  5. FILE "Unknown Artist - Unknown Title.wav" WAVE
  6.   TRACK 01 AUDIO
  7.     TITLE "Track01"
  8.     PERFORMER "Unknown Artist"
  9.     INDEX 00 00:00:00
  10.     INDEX 01 00:00:01
  11.   TRACK 02 AUDIO
  12.     TITLE "Track02"
  13.     PERFORMER "Unknown Artist"
  14.     INDEX 01 03:51:65
  15.   TRACK 03 AUDIO
  16.     TITLE "Track03"
  17.     PERFORMER "Unknown Artist"
  18.     INDEX 01 11:13:31
  19.   TRACK 04 AUDIO
  20.     TITLE "Track04"
  21.     PERFORMER "Unknown Artist"
  22.     INDEX 01 18:23:73
  23.   TRACK 05 AUDIO
  24.     TITLE "Track05"
  25.     PERFORMER "Unknown Artist"
  26.     INDEX 01 26:31:49
  27.   TRACK 06 AUDIO
  28.     TITLE "Track06"
  29.     PERFORMER "Unknown Artist"
  30.     INDEX 00 32:57:25
  31.     INDEX 01 32:57:28
RAW Paste Data
We use cookies for various purposes including analytics. By continuing to use Pastebin, you agree to our use of cookies as described in the Cookies Policy. OK, I Understand
 
Top