Guest User

1080

a guest
Oct 11th, 2019
590
Never
Not a member of Pastebin yet? Sign Up, it unlocks many cool features!
  1. General
  2. Unique ID : 183151050060398034390891575543680652285 (0x89C99BF24902484C6DD17401751AD3FD)
  3. Complete name : Skin.2018.1080p.BluRay.DTS.5.1x264-GUACAMOLE
  4. Format : Matroska
  5. Format version : Version 4
  6. File size : 9.83 GiB
  7. Duration : 1 h 58 min
  8. Overall bit rate : 11.9 Mb/s
  9. Encoded date : UTC 2019-10-11 19:52:13
  10. Writing application : mkvmerge v35.0.0 ('All The Love In The World') 64-bit
  11. Writing library : libebml v1.3.9 + libmatroska v1.5.2
  12.  
  13. Video
  14. ID : 1
  15. Format : AVC
  16. Format/Info : Advanced Video Codec
  17. Format profile : High@L4.1
  18. Format settings : CABAC / 5 Ref Frames
  19. Format settings, CABAC : Yes
  20. Format settings, Reference frames : 5 frames
  21. Codec ID : V_MPEG4/ISO/AVC
  22. Duration : 1 h 58 min
  23. Bit rate : 10.4 Mb/s
  24. Width : 1 920 pixels
  25. Height : 808 pixels
  26. Display aspect ratio : 2.40:1
  27. Frame rate mode : Constant
  28. Frame rate : 23.976 (24000/1001) FPS
  29. Color space : YUV
  30. Chroma subsampling : 4:2:0
  31. Bit depth : 8 bits
  32. Scan type : Progressive
  33. Bits/(Pixel*Frame) : 0.279
  34. Stream size : 8.58 GiB (87%)
  35. Writing library : x264 core 157 r2969 d4099dd
  36. Encoding settings : cabac=1 / ref=5 / deblock=1:0:0 / analyse=0x3:0x113 / me=umh / subme=8 / psy=1 / psy_rd=1.00:0.00 / mixed_ref=1 / me_range=16 / chroma_me=1 / trellis=2 / 8x8dct=1 / cqm=0 / deadzone=21,11 / fast_pskip=0 / chroma_qp_offset=-2 / threads=25 / lookahead_threads=4 / sliced_threads=0 / nr=0 / decimate=1 / interlaced=0 / bluray_compat=0 / constrained_intra=0 / bframes=3 / b_pyramid=2 / b_adapt=1 / b_bias=0 / direct=1 / weightb=1 / open_gop=0 / weightp=2 / keyint=250 / keyint_min=23 / scenecut=40 / intra_refresh=0 / rc_lookahead=50 / rc=2pass / mbtree=1 / bitrate=10373 / ratetol=1.0 / qcomp=0.60 / qpmin=0 / qpmax=69 / qpstep=4 / cplxblur=20.0 / qblur=0.5 / ip_ratio=1.40 / aq=1:1.00
  37. Default : Yes
  38. Forced : No
  39.  
  40. Audio
  41. ID : 2
  42. Format : DTS
  43. Format/Info : Digital Theater Systems
  44. Codec ID : A_DTS
  45. Duration : 1 h 58 min
  46. Bit rate mode : Constant
  47. Bit rate : 1 509 kb/s
  48. Channel(s) : 6 channels
  49. Channel layout : C L R Ls Rs LFE
  50. Sampling rate : 48.0 kHz
  51. Frame rate : 93.750 FPS (512 SPF)
  52. Bit depth : 24 bits
  53. Compression mode : Lossy
  54. Stream size : 1.25 GiB (13%)
  55. Language : English
  56. Default : Yes
  57. Forced : No
  58.  
  59. Menu
  60. 00:00:00.000 : :Kapitel 01
  61. 00:05:08.600 : :Kapitel 02
  62. 00:12:43.179 : :Kapitel 03
  63. 00:18:54.592 : :Kapitel 04
  64. 00:30:26.116 : :Kapitel 05
  65. 00:36:40.907 : :Kapitel 06
  66. 00:46:40.548 : :Kapitel 07
  67. 01:04:07.677 : :Kapitel 08
  68. 01:17:10.960 : :Kapitel 09
  69. 01:26:51.415 : :Kapitel 10
  70. 01:36:28.992 : :Kapitel 11
  71. 01:44:10.828 : :Kapitel 12
RAW Paste Data