HYBRID_BEING

[Hidoi desu] Stella no Mahou - 03 [TV 720p AAC] [EB5E3EEC].mkv

Nov 12th, 2016
80
Never
Not a member of Pastebin yet? Sign Up, it unlocks many cool features!
  1. General
  2. Unique ID : 248338790589754191533559316032319647273 (0xBAD44FB25686EFE0B5493D3FE62BEE29)
  3. Complete name : [Hidoi desu] Stella no Mahou - 03 [TV 720p AAC] [EB5E3EEC].mkv
  4. Format : Matroska
  5. Format version : Version 4 / Version 2
  6. File size : 287 MiB
  7. Duration : 24mn 0s
  8. Overall bit rate : 1 671 Kbps
  9. Movie name : Stella no Mahou - 03 : Transmission Item
  10. Encoded date : UTC 2016-11-04 12:42:20
  11. Writing application : mkvmerge v9.2.0 ('Photograph') 64bit
  12. Writing library : libebml v1.3.3 + libmatroska v1.4.4
  13. Attachments : A-OTF-ShinMGoPro-Bold.ttf / Aver Bold.ttf / Blambot Pro Lite Bold.ttf / BRUSHED.TTF / clannad.ttf / FOTComicReggaeStdStripped-Bold.otf / GandhiSans-Bold.otf / GandhiSans-BoldItalic.otf / gloriahallelujah.ttf / KGTurningTables.ttf / lvnm.ttf / PIXEARG.TTF / VAG%20Rounded%20BT.ttf / Volter__28Goldfish.ttf
  14.  
  15. Video
  16. ID : 1
  17. Format : AVC
  18. Format/Info : Advanced Video Codec
  19. Format profile : High@L4.1
  20. Format settings, CABAC : Yes
  21. Format settings, ReFrames : 4 frames
  22. Codec ID : V_MPEG4/ISO/AVC
  23. Duration : 24mn 0s
  24. Bit rate : 1 469 Kbps
  25. Width : 1 280 pixels
  26. Height : 720 pixels
  27. Display aspect ratio : 16:9
  28. Frame rate mode : Constant
  29. Frame rate : 23.976 (24000/1001) fps
  30. Color space : YUV
  31. Chroma subsampling : 4:2:0
  32. Bit depth : 8 bits
  33. Scan type : Progressive
  34. Bits/(Pixel*Frame) : 0.066
  35. Stream size : 252 MiB (88%)
  36. Title : 8bit x264 - Leopard-Raws
  37. Writing library : x264 core 129 r2245+729M 1a52e03
  38. Encoding settings : cabac=1 / ref=4 / deblock=1:1:-1 / analyse=0x3:0x113 / me=umh / subme=9 / psy=1 / fade_compensate=0.00 / psy_rd=1.00:0.00 / mixed_ref=1 / me_range=24 / chroma_me=1 / trellis=2 / 8x8dct=1 / cqm=0 / deadzone=21,11 / fast_pskip=1 / chroma_qp_offset=-2 / threads=8 / lookahead_threads=1 / sliced_threads=0 / nr=0 / decimate=1 / interlaced=0 / bluray_compat=0 / constrained_intra=0 / fgo=0 / bframes=9 / b_pyramid=2 / b_adapt=2 / b_bias=0 / direct=1 / weightb=1 / open_gop=0 / weightp=2 / keyint=240 / keyint_min=24 / scenecut=40 / intra_refresh=0 / rc=crf / mbtree=0 / crf=18.5 / qcomp=0.72 / qpmin=0 / qpmax=69 / qpstep=4 / ip_ratio=1.40 / pb_ratio=1.30 / aq=1:0.85
  39. Language : Japanese
  40. Default : Yes
  41. Forced : No
  42. Color range : Limited
  43. Color primaries : BT.709
  44. Transfer characteristics : BT.709
  45. Matrix coefficients : BT.709
  46.  
  47. Audio
  48. ID : 2
  49. Format : AAC
  50. Format/Info : Advanced Audio Codec
  51. Format profile : LC
  52. Codec ID : A_AAC
  53. Duration : 24mn 0s
  54. Bit rate : 192 Kbps
  55. Channel(s) : 2 channels
  56. Channel positions : Front: L R
  57. Sampling rate : 48.0 KHz
  58. Frame rate : 46.875 fps (1024 spf)
  59. Compression mode : Lossy
  60. Delay relative to video : 150ms
  61. Stream size : 32.8 MiB (11%)
  62. Title : AAC 2.0
  63. Language : Japanese
  64. Default : Yes
  65. Forced : No
  66.  
  67. Text
  68. ID : 3
  69. Format : ASS
  70. Codec ID : S_TEXT/ASS
  71. Codec ID/Info : Advanced Sub Station Alpha
  72. Duration : 23mn 44s
  73. Bit rate : 2 163 bps
  74. Count of elements : 2685
  75. Compression mode : Lossless
  76. Stream size : 376 KiB (0%)
  77. Language : English
  78. Default : Yes
  79. Forced : No
  80.  
  81. Menu
  82. 00:00:00.000 : en:Intro
  83. 00:01:42.019 : en:OP
  84. 00:03:21.993 : en:Part A
  85. 00:13:46.034 : en:Part B
  86. 00:21:41.717 : en:ED
  87. 00:22:55.457 : en:Epilogue
  88. 00:23:29.992 : en:Preview
  89. 00:23:55.017 : en:Endcard
RAW Paste Data