SHARE
TWEET

Life.is.Beautiful.1997.Theatrical.Hybrid.1080p.BluRay.REMUX.AVC.DTS-HD.MA.5.1-EPSiLON

a guest Jun 12th, 2019 31 Never
Not a member of Pastebin yet? Sign Up, it unlocks many cool features!
  1. General
  2. Complete name                            : Life.is.Beautiful.1997.Theatrical.Hybrid.1080p.BluRay.REMUX.AVC.DTS-HD.MA.5.1-EPSiLON.mkv
  3. Format                                   : Matroska
  4. Format version                           : Version 4
  5. File size                                : 27.9 GiB
  6. Duration                                 : 2 h 4 min
  7. Overall bit rate mode                    : Variable
  8. Overall bit rate                         : 32.0 Mb/s
  9. Encoded date                             : UTC 2018-09-15 09:50:45
  10. Writing application                      : mkvmerge v26.0.0 ('In The Game') 64-bit
  11. Writing library                          : libebml v1.3.6 + libmatroska v1.4.9
  12.  
  13. Video
  14. ID                                       : 1
  15. Format                                   : AVC
  16. Format/Info                              : Advanced Video Codec
  17. Format profile                           : High@L4.1
  18. Format settings                          : CABAC / 4 Ref Frames
  19. Format settings, CABAC                   : Yes
  20. Format settings, Reference frames        : 4 frames
  21. Codec ID                                 : V_MPEG4/ISO/AVC
  22. Duration                                 : 2 h 4 min
  23. Bit rate mode                            : Variable
  24. Bit rate                                 : 30.0 Mb/s
  25. Maximum bit rate                         : 35.0 Mb/s
  26. Width                                    : 1 920 pixels
  27. Height                                   : 1 080 pixels
  28. Display aspect ratio                     : 16:9
  29. Frame rate mode                          : Constant
  30. Frame rate                               : 23.976 (24000/1001) FPS
  31. Color space                              : YUV
  32. Chroma subsampling                       : 4:2:0
  33. Bit depth                                : 8 bits
  34. Scan type                                : Progressive
  35. Bits/(Pixel*Frame)                       : 0.603
  36. Stream size                              : 26.1 GiB (94%)
  37. Title                                    : MPEG-4 AVC Video / 29986 kbps / 1080p / 23,976 fps / 16:9 / High Profile 4.1
  38. Language                                 : German
  39. Default                                  : Yes
  40. Forced                                   : No
  41. Color range                              : Limited
  42. Color primaries                          : BT.709
  43. Transfer characteristics                 : BT.709
  44. Matrix coefficients                      : BT.709
  45.  
  46. Audio
  47. ID                                       : 2
  48. Format                                   : DTS XLL
  49. Format/Info                              : Digital Theater Systems
  50. Commercial name                          : DTS-HD Master Audio
  51. Codec ID                                 : A_DTS
  52. Duration                                 : 2 h 4 min
  53. Bit rate mode                            : Variable
  54. Bit rate                                 : 1 947 kb/s
  55. Channel(s)                               : 6 channels
  56. Channel layout                           : C L R Ls Rs LFE
  57. Sampling rate                            : 48.0 kHz
  58. Frame rate                               : 93.750 FPS (512 SPF)
  59. Bit depth                                : 16 bits
  60. Compression mode                         : Lossless
  61. Delay relative to video                  : 14 s 723 ms
  62. Stream size                              : 1.69 GiB (6%)
  63. Title                                    : DTS-HD Master Audio / 5.1 / 48 kHz / 1947 kbps / 16-bit
  64. Language                                 : Italian
  65. Default                                  : Yes
  66. Forced                                   : No
  67.  
  68. Text #1
  69. ID                                       : 3
  70. Format                                   : PGS
  71. Codec ID                                 : S_HDMV/PGS
  72. Codec ID/Info                            : Picture based subtitle format used on BDs/HD-DVDs
  73. Duration                                 : 2 h 1 min
  74. Bit rate                                 : 44.0 kb/s
  75. Count of elements                        : 2608
  76. Stream size                              : 38.3 MiB (0%)
  77. Language                                 : English
  78. Default                                  : Yes
  79. Forced                                   : No
  80.  
  81. Text #2
  82. ID                                       : 4
  83. Format                                   : PGS
  84. Codec ID                                 : S_HDMV/PGS
  85. Codec ID/Info                            : Picture based subtitle format used on BDs/HD-DVDs
  86. Duration                                 : 2 h 1 min
  87. Bit rate                                 : 33.3 kb/s
  88. Count of elements                        : 2600
  89. Stream size                              : 29.0 MiB (0%)
  90. Language                                 : German
  91. Default                                  : No
  92. Forced                                   : No
  93.  
  94. Text #3
  95. ID                                       : 5
  96. Format                                   : PGS
  97. Codec ID                                 : S_HDMV/PGS
  98. Codec ID/Info                            : Picture based subtitle format used on BDs/HD-DVDs
  99. Duration                                 : 2 h 1 min
  100. Bit rate                                 : 41.6 kb/s
  101. Count of elements                        : 2766
  102. Stream size                              : 36.1 MiB (0%)
  103. Title                                    : SDH
  104. Language                                 : Italian
  105. Default                                  : No
  106. Forced                                   : No
  107.  
  108. Menu
  109. 00:00:00.000                             : :Chapter 01
  110. 00:11:02.495                             : :Chapter 02
  111. 00:24:18.915                             : :Chapter 03
  112. 00:34:36.240                             : :Chapter 04
  113. 00:41:12.636                             : :Chapter 05
  114. 00:57:32.115                             : :Chapter 06
  115. 01:05:55.701                             : :Chapter 07
  116. 01:14:39.850                             : :Chapter 08
  117. 01:25:31.668                             : :Chapter 09
  118. 01:36:18.731                             : :Chapter 10
  119. 01:48:34.424                             : :Chapter 11
  120. 01:58:39.487                             : :Chapter 12
RAW Paste Data
We use cookies for various purposes including analytics. By continuing to use Pastebin, you agree to our use of cookies as described in the Cookies Policy. OK, I Understand
 
Top