Advertisement
Henry_Kr

MAOS-S01

Jul 7th, 2023
185
0
Never
Not a member of Pastebin yet? Sign Up, it unlocks many cool features!
text 4.92 KB | None | 0 0
  1. Video
  2. ID : 1
  3. Format : AVC
  4. Format/Info : Advanced Video Codec
  5. Format profile : High@L4
  6. Format settings : CABAC / 4 Ref Frames
  7. Format settings, CABAC : Yes
  8. Format settings, Reference : 4 frames
  9. Codec ID : V_MPEG4/ISO/AVC
  10. Duration : 22 min 34 s
  11. Bit rate mode : Variable
  12. Bit rate : 8 250 kb/s
  13. Maximum bit rate : 12.4 Mb/s
  14. Width : 1 920 pixels
  15. Height : 1 080 pixels
  16. Display aspect ratio : 16:9
  17. Frame rate mode : Constant
  18. Frame rate : 23.976 (24000/1001) FPS
  19. Color space : YUV
  20. Chroma subsampling : 4:2:0
  21. Bit depth : 8 bits
  22. Scan type : Progressive
  23. Bits/(Pixel*Frame) : 0.166
  24. Stream size : 1.29 GiB (91%)
  25. Writing library : x264 core 157 r2965 861cec4
  26. Encoding settings : cabac=1 / ref=4 / deblock=1:0:0 / analyse=0x3:0x113 / me=hex / subme=7 / psy=1 / psy_rd=1.00:0.00 / mixed_ref=1 / me_range=16 / chroma_me=1 / trellis=1 / 8x8dct=1 / cqm=0 / deadzone=21,11 / fast_pskip=1 / chroma_qp_offset=-2 / threads=34 / lookahead_threads=5 / sliced_threads=0 / nr=0 / decimate=1 / interlaced=0 / bluray_compat=0 / constrained_intra=0 / bframes=3 / b_pyramid=2 / b_adapt=1 / b_bias=0 / direct=1 / weightb=1 / open_gop=0 / weightp=2 / keyint=96 / keyint_min=96 / scenecut=40 / intra_refresh=0 / rc_lookahead=40 / rc=2pass / mbtree=1 / bitrate=8250 / ratetol=1.0 / qcomp=0.60 / qpmin=0 / qpmax=69 / qpstep=4 / cplxblur=20.0 / qblur=0.5 / vbv_maxrate=12375 / vbv_bufsize=6187 / nal_hrd=vbr / filler=0 / ip_ratio=1.40 / aq=1:1.00
  27. Default : Yes
  28. Forced : No
  29. Color range : Limited
  30. Color primaries : BT.709
  31. Transfer characteristics : BT.709
  32. Matrix coefficients : BT.709
  33.  
  34. Audio #1
  35. ID : 2
  36. Format : AC-3
  37. Format/Info : Audio Coding 3
  38. Commercial name : Dolby Digital
  39. Codec ID : A_AC3
  40. Duration : 22 min 34 s
  41. Bit rate mode : Constant
  42. Bit rate : 384 kb/s
  43. Channel(s) : 2 channels
  44. Channel layout : L R
  45. Sampling rate : 48.0 kHz
  46. Frame rate : 31.250 FPS (1536 SPF)
  47. Compression mode : Lossy
  48. Stream size : 62.0 MiB (4%)
  49. Title : Brazilian
  50. Language : Portuguese
  51. Service kind : Complete Main
  52. Default : Yes
  53. Forced : No
  54.  
  55. Audio #2
  56. ID : 3
  57. Format : AC-3
  58. Format/Info : Audio Coding 3
  59. Commercial name : Dolby Digital
  60. Codec ID : A_AC3
  61. Duration : 22 min 34 s
  62. Bit rate mode : Constant
  63. Bit rate : 384 kb/s
  64. Channel(s) : 6 channels
  65. Channel layout : L R C LFE Ls Rs
  66. Sampling rate : 48.0 kHz
  67. Frame rate : 31.250 FPS (1536 SPF)
  68. Compression mode : Lossy
  69. Stream size : 62.0 MiB (4%)
  70. Language : English
  71. Service kind : Complete Main
  72. Default : No
  73. Forced : No
  74.  
  75. Text #1
  76. ID : 4
  77. Format : UTF-8
  78. Codec ID : S_TEXT/UTF8
  79. Codec ID/Info : UTF-8 Plain Text
  80. Duration : 21 min 21 s
  81. Bit rate : 69 b/s
  82. Count of elements : 309
  83. Stream size : 10.8 KiB (0%)
  84. Title : Brazilian
  85. Language : Portuguese
  86. Default : No
  87. Forced : No
  88.  
  89. Text #2
  90. ID : 5
  91. Format : UTF-8
  92. Codec ID : S_TEXT/UTF8
  93. Codec ID/Info : UTF-8 Plain Text
  94. Duration : 21 min 51 s
  95. Bit rate : 84 b/s
  96. Count of elements : 474
  97. Stream size : 13.5 KiB (0%)
  98. Title : SDH
  99. Language : English
  100. Default : No
  101. Forced : No
  102.  
  103. Text #3
  104. ID : 6
  105. Format : UTF-8
  106. Codec ID : S_TEXT/UTF8
  107. Codec ID/Info : UTF-8 Plain Text
  108. Duration : 22 min 14 s
  109. Bit rate : 61 b/s
  110. Count of elements : 309
  111. Stream size : 10.0 KiB (0%)
  112. Title : Latin American
  113. Language : Spanish
  114. Default : No
  115. Forced : No
  116.  
  117. Menu
  118. 00:22:04.000 : en:Credits
Advertisement
Add Comment
Please, Sign In to add comment
Advertisement