Guest User

EP3

a guest
May 3rd, 2020
14
Never
Not a member of Pastebin yet? Sign Up, it unlocks many cool features!
  1. General
  2. Unique ID : 296670257694201476321434663490131810031 (0xDF309D0096BA261B194601D99D0756EF)
  3. Complete name : ---
  4. Format : Matroska
  5. Format version : Version 4
  6. File size : 49.8 GiB
  7. Duration : 2 h 20 min
  8. Overall bit rate mode : Variable
  9. Overall bit rate : 50.9 Mb/s
  10. Movie name : ---
  11. Encoded date : UTC 2020-05-01 03:48:03
  12. Writing application : mkvmerge v31.0.0 ('Dolores In A Shoestand') 64-bit
  13. Writing library : libebml v1.3.6 + libmatroska v1.4.9
  14.  
  15. Video
  16. ID : 1
  17. Format : HEVC
  18. Format/Info : High Efficiency Video Coding
  19. Format profile : Main 10@L5.1@High
  20. HDR format : SMPTE ST 2086, HDR10 compatible
  21. Codec ID : V_MPEGH/ISO/HEVC
  22. Duration : 2 h 20 min
  23. Bit rate : 43.8 Mb/s
  24. Width : 3 840 pixels
  25. Height : 2 160 pixels
  26. Display aspect ratio : 16:9
  27. Frame rate mode : Constant
  28. Frame rate : 23.976 (24000/1001) FPS
  29. Color space : YUV
  30. Chroma subsampling : 4:2:0 (Type 2)
  31. Bit depth : 10 bits
  32. Bits/(Pixel*Frame) : 0.220
  33. Stream size : 42.9 GiB (86%)
  34. Writing library : ATEME Titan File 3.9.0 (4.9.0.0)
  35. Language : English
  36. Default : No
  37. Forced : No
  38. Color range : Limited
  39. Color primaries : BT.2020
  40. Transfer characteristics : PQ
  41. Matrix coefficients : BT.2020 non-constant
  42. Mastering display color primaries : BT.2020
  43. Mastering display luminance : min: 0.0001 cd/m2, max: 1000 cd/m2
  44.  
  45. Audio #1
  46. ID : 2
  47. Format : E-AC-3
  48. Format/Info : Enhanced AC-3
  49. Commercial name : Dolby Digital Plus
  50. Format profile : Blu-ray Disc
  51. Codec ID : A_EAC3
  52. Duration : 2 h 20 min
  53. Bit rate mode : Constant
  54. Bit rate : 1 024 kb/s
  55. Channel(s) : 8 channels
  56. Channel layout : L R C LFE Ls Rs Lb Rb
  57. Sampling rate : 48.0 kHz
  58. Frame rate : 31.250 FPS (1536 SPF)
  59. Compression mode : Lossy
  60. Stream size : 1.00 GiB (2%)
  61. Title : Surround 7.1
  62. Language : German
  63. Service kind : Complete Main
  64. Default : Yes
  65. Forced : No
  66.  
  67. Audio #2
  68. ID : 3
  69. Format : AC-3
  70. Format/Info : Audio Coding 3
  71. Commercial name : Dolby Digital
  72. Codec ID : A_AC3
  73. Duration : 2 h 20 min
  74. Bit rate mode : Constant
  75. Bit rate : 576 kb/s
  76. Channel(s) : 6 channels
  77. Channel layout : L R C LFE Ls Rs
  78. Sampling rate : 48.0 kHz
  79. Frame rate : 31.250 FPS (1536 SPF)
  80. Compression mode : Lossy
  81. Stream size : 577 MiB (1%)
  82. Title : Surround 5.1
  83. Language : German
  84. Service kind : Complete Main
  85. Default : No
  86. Forced : No
  87.  
  88. Audio #3
  89. ID : 4
  90. Format : MLP FBA 16-ch
  91. Format/Info : Meridian Lossless Packing FBA with 16-channel presentation
  92. Commercial name : Dolby TrueHD with Dolby Atmos
  93. Codec ID : A_TRUEHD
  94. Duration : 2 h 20 min
  95. Bit rate mode : Variable
  96. Bit rate : 4 393 kb/s
  97. Maximum bit rate : 5 700 kb/s
  98. Channel(s) : 8 channels
  99. Channel layout : L R C LFE Ls Rs Lb Rb
  100. Sampling rate : 48.0 kHz
  101. Frame rate : 1 200.000 FPS (40 SPF)
  102. Compression mode : Lossless
  103. Stream size : 4.30 GiB (9%)
  104. Title : Surround 7.1
  105. Language : English
  106. Default : No
  107. Forced : No
  108. Number of dynamic objects : 13
  109. Bed channel count : 1 channel
  110. Bed channel configuration : LFE
  111.  
  112. Audio #4
  113. ID : 5
  114. Format : AC-3
  115. Format/Info : Audio Coding 3
  116. Commercial name : Dolby Digital
  117. Codec ID : A_AC3
  118. Duration : 2 h 20 min
  119. Bit rate mode : Constant
  120. Bit rate : 640 kb/s
  121. Channel(s) : 6 channels
  122. Channel layout : L R C LFE Ls Rs
  123. Sampling rate : 48.0 kHz
  124. Frame rate : 31.250 FPS (1536 SPF)
  125. Compression mode : Lossy
  126. Stream size : 641 MiB (1%)
  127. Title : Surround 5.1
  128. Language : English
  129. Service kind : Complete Main
  130. Default : No
  131. Forced : No
  132.  
  133. Audio #5
  134. ID : 6
  135. Format : AC-3
  136. Format/Info : Audio Coding 3
  137. Commercial name : Dolby Digital
  138. Codec ID : A_AC3
  139. Duration : 2 h 20 min
  140. Bit rate mode : Constant
  141. Bit rate : 320 kb/s
  142. Channel(s) : 2 channels
  143. Channel layout : L R
  144. Sampling rate : 48.0 kHz
  145. Frame rate : 31.250 FPS (1536 SPF)
  146. Compression mode : Lossy
  147. Stream size : 321 MiB (1%)
  148. Title : Stereo
  149. Language : English
  150. Service kind : Complete Main
  151. Default : No
  152. Forced : No
  153.  
  154. Text #1
  155. ID : 7
  156. Format : PGS
  157. Muxing mode : zlib
  158. Codec ID : S_HDMV/PGS
  159. Codec ID/Info : Picture based subtitle format used on BDs/HD-DVDs
  160. Duration : 2 h 10 min
  161. Bit rate : 31.3 kb/s
  162. Count of elements : 2510
  163. Stream size : 29.2 MiB (0%)
  164. Language : German
  165. Default : No
  166. Forced : No
  167.  
  168. Text #2
  169. ID : 8
  170. Format : PGS
  171. Muxing mode : zlib
  172. Codec ID : S_HDMV/PGS
  173. Codec ID/Info : Picture based subtitle format used on BDs/HD-DVDs
  174. Duration : 2 h 12 min
  175. Bit rate : 29.5 kb/s
  176. Count of elements : 2974
  177. Stream size : 27.9 MiB (0%)
  178. Language : English
  179. Default : No
  180. Forced : No
  181.  
  182. Menu
  183. 00:00:00.000 : en:Chapter 01
  184. 00:00:24.024 : en:Chapter 02
  185. 00:01:51.069 : en:Chapter 03
  186. 00:08:28.549 : en:Chapter 04
  187. 00:11:23.974 : en:Chapter 05
  188. 00:18:34.404 : en:Chapter 06
  189. 00:23:40.752 : en:Chapter 07
  190. 00:27:38.239 : en:Chapter 08
  191. 00:29:13.710 : en:Chapter 09
  192. 00:33:19.580 : en:Chapter 10
  193. 00:35:46.060 : en:Chapter 11
  194. 00:36:48.706 : en:Chapter 12
  195. 00:38:22.091 : en:Chapter 13
  196. 00:40:18.082 : en:Chapter 14
  197. 00:41:19.268 : en:Chapter 15
  198. 00:42:41.600 : en:Chapter 16
  199. 00:48:02.254 : en:Chapter 17
  200. 00:50:21.143 : en:Chapter 18
  201. 00:52:25.433 : en:Chapter 19
  202. 00:53:58.610 : en:Chapter 20
  203. 00:56:27.008 : en:Chapter 21
  204. 01:00:56.653 : en:Chapter 22
  205. 01:01:56.963 : en:Chapter 23
  206. 01:05:26.672 : en:Chapter 24
  207. 01:07:41.265 : en:Chapter 25
  208. 01:09:07.601 : en:Chapter 26
  209. 01:10:53.582 : en:Chapter 27
  210. 01:15:19.890 : en:Chapter 28
  211. 01:19:15.876 : en:Chapter 29
  212. 01:20:38.124 : en:Chapter 30
  213. 01:24:21.222 : en:Chapter 31
  214. 01:27:57.188 : en:Chapter 32
  215. 01:29:57.892 : en:Chapter 33
  216. 01:33:41.073 : en:Chapter 34
  217. 01:36:39.877 : en:Chapter 35
  218. 01:38:36.118 : en:Chapter 36
  219. 01:41:25.037 : en:Chapter 37
  220. 01:42:57.379 : en:Chapter 38
  221. 01:48:19.868 : en:Chapter 39
  222. 01:50:59.944 : en:Chapter 40
  223. 01:52:44.674 : en:Chapter 41
  224. 01:54:23.523 : en:Chapter 42
  225. 01:56:55.466 : en:Chapter 43
  226. 02:02:21.500 : en:Chapter 44
  227. 02:03:33.489 : en:Chapter 45
  228. 02:05:20.137 : en:Chapter 46
  229. 02:07:37.524 : en:Chapter 47
  230. 02:08:57.646 : en:Chapter 48
  231. 02:12:05.626 : en:Chapter 49
  232. 02:13:47.978 : en:Chapter 50
RAW Paste Data