G2A Many GEOs
SHARE
TWEET

Untitled

seleZennet Jan 8th, 2020 93 Never
Not a member of Pastebin yet? Sign Up, it unlocks many cool features!
  1. General
  2. Unique ID                   : 173666803267724180626641185386603454743 (0x82A7027A1F323C69EF6BD0522AB3A117)
  3. Complete name               : E:\Video111\Harmony.2018.BDRip.1080p.seleZen.mkv
  4. Format                      : Matroska
  5. Format version              : Version 4
  6. File size                   : 7.88 GiB
  7. Duration                    : 1 h 30 min
  8. Overall bit rate            : 12.5 Mb/s
  9. Movie name                  : Harmony 2018  from селезень
  10. Encoded date                : UTC 2020-01-09 00:08:23
  11. Writing application         : mkvmerge v40.0.0 ('Old Town Road + Pony') 64-bit
  12. Writing library             : libebml v1.3.9 + libmatroska v1.5.2
  13.  
  14. Video
  15. ID                          : 1
  16. Format                      : AVC
  17. Format/Info                 : Advanced Video Codec
  18. Format profile              : High@L4.1
  19. Format settings             : CABAC / 5 Ref Frames
  20. Format settings, CABAC      : Yes
  21. Format settings, Reference  : 5 frames
  22. Codec ID                    : V_MPEG4/ISO/AVC
  23. Duration                    : 1 h 30 min
  24. Bit rate                    : 11.5 Mb/s
  25. Width                       : 1 920 pixels
  26. Height                      : 806 pixels
  27. Display aspect ratio        : 2.40:1
  28. Frame rate mode             : Constant
  29. Frame rate                  : 23.976 (24000/1001) FPS
  30. Color space                 : YUV
  31. Chroma subsampling          : 4:2:0
  32. Bit depth                   : 8 bits
  33. Scan type                   : Progressive
  34. Bits/(Pixel*Frame)          : 0.310
  35. Stream size                 : 7.23 GiB (92%)
  36. Title                       : Encoded by seleZen
  37. Writing library             : x264 core 142 r2431+42 c69a006 tMod [8-bit@all X86_64]
  38. Encoding settings           : cabac=1 / ref=5 / deblock=1:-2:-2 / analyse=0x3:0x133 / me=umh / subme=11 / psy=1 / fade_compensate=0.00 / psy_rd=0.02:0.03 / mixed_ref=1 / me_range=32 / chroma_me=1 / trellis=2 / 8x8dct=1 / cqm=0 / deadzone=21,11 / fast_pskip=0 / chroma_qp_offset=-2 / threads=24 / lookahead_threads=6 / sliced_threads=0 / nr=0 / decimate=0 / interlaced=0 / bluray_compat=0 / constrained_intra=0 / fgo=0 / bframes=10 / b_pyramid=2 / b_adapt=2 / b_bias=0 / direct=3 / weightb=1 / open_gop=0 / weightp=2 / keyint=240 / keyint_min=23 / scenecut=40 / intra_refresh=0 / rc_lookahead=50 / rc=2pass / mbtree=0 / bitrate=11500 / ratetol=1.0 / qcomp=0.60 / qpmin=0:0:0 / qpmax=51:51:51 / qpstep=4 / cplxblur=20.0 / qblur=0.5 / vbv_maxrate=50000 / vbv_bufsize=62500 / nal_hrd=none / filler=0 / ip_ratio=1.40 / pb_ratio=1.30 / aq=3:0.80 / aq-sensitivity=10.00 / aq-factor=1.00:1.00:1.00 / aq2=0 / aq3=0
  39. Language                    : English
  40. Default                     : Yes
  41. Forced                      : No
  42.  
  43. Audio #1
  44. ID                          : 2
  45. Format                      : AC-3
  46. Format/Info                 : Audio Coding 3
  47. Commercial name             : Dolby Digital
  48. Codec ID                    : A_AC3
  49. Duration                    : 1 h 30 min
  50. Bit rate mode               : Constant
  51. Bit rate                    : 384 kb/s
  52. Channel(s)                  : 6 channels
  53. Channel layout              : L R C LFE Ls Rs
  54. Sampling rate               : 48.0 kHz
  55. Frame rate                  : 31.250 FPS (1536 SPF)
  56. Compression mode            : Lossy
  57. Stream size                 : 248 MiB (3%)
  58. Title                       : iTunes
  59. Language                    : Russian
  60. Service kind                : Complete Main
  61. Default                     : Yes
  62. Forced                      : Yes
  63.  
  64. Audio #2
  65. ID                          : 3
  66. Format                      : AC-3
  67. Format/Info                 : Audio Coding 3
  68. Commercial name             : Dolby Digital
  69. Codec ID                    : A_AC3
  70. Duration                    : 1 h 30 min
  71. Bit rate mode               : Constant
  72. Bit rate                    : 640 kb/s
  73. Channel(s)                  : 6 channels
  74. Channel layout              : L R C LFE Ls Rs
  75. Sampling rate               : 48.0 kHz
  76. Frame rate                  : 31.250 FPS (1536 SPF)
  77. Compression mode            : Lossy
  78. Stream size                 : 413 MiB (5%)
  79. Title                       : Original
  80. Language                    : English
  81. Service kind                : Complete Main
  82. Default                     : No
  83. Forced                      : No
  84.  
  85. Text
  86. ID                          : 4
  87. Format                      : UTF-8
  88. Codec ID                    : S_TEXT/UTF8
  89. Codec ID/Info               : UTF-8 Plain Text
  90. Duration                    : 1 h 28 min
  91. Bit rate                    : 38 b/s
  92. Count of elements           : 1001
  93. Stream size                 : 24.7 KiB (0%)
  94. Title                       : Full
  95. Language                    : English
  96. Default                     : No
  97. Forced                      : No
  98.  
  99. Menu
  100. 00:00:00.000                : en:Chapter 01
  101. 00:09:46.336                : en:Chapter 02
  102. 00:19:59.198                : en:Chapter 03
  103. 00:30:10.392                : en:Chapter 04
  104. 00:41:53.886                : en:Chapter 05
  105. 00:50:18.933                : en:Chapter 06
  106. 00:59:26.438                : en:Chapter 07
  107. 01:10:15.753                : en:Chapter 08
  108. 01:19:44.029                : en:Chapter 09
  109. 01:27:26.825                : en:Chapter 10
RAW Paste Data
We use cookies for various purposes including analytics. By continuing to use Pastebin, you agree to our use of cookies as described in the Cookies Policy. OK, I Understand
Top