SHARE
TWEET

Teen Titans Main

mhimranhossain97 Dec 4th, 2019 113 Never
Not a member of Pastebin yet? Sign Up, it unlocks many cool features!
  1. General
  2. Unique ID                                : 18927722907739395635237280119068256783 (0xE3D58CA0741D8EFC0D00DB1CA3F6A0F)
  3. Complete name                            : /home/mh/Misc/Teen.Titans.Go.Vs.Teen.Titans.2019.1080p.BluRay.Remux.AVC.DTS-HD.MA.5.1-ALiEN.mkv
  4. Format                                   : Matroska
  5. Format version                           : Version 4 / Version 2
  6. File size                                : 7.75 GiB
  7. Duration                                 : 1 h 16 min
  8. Overall bit rate mode                    : Variable
  9. Overall bit rate                         : 14.4 Mb/s
  10. Movie name                               : Teen.Titans.Go.Vs.Teen.Titans.2019.1080p.BluRay.Remux.AVC.DTS-HD.MA.5.1-ALiEN
  11. Encoded date                             : UTC 2019-10-11 10:45:40
  12. Writing application                      : mkvmerge v35.0.0 ('All The Love In The World') 64-bit
  13. Writing library                          : libebml v1.3.9 + libmatroska v1.5.2
  14.  
  15. Video
  16. ID                                       : 1
  17. Format                                   : AVC
  18. Format/Info                              : Advanced Video Codec
  19. Format profile                           : High@L4.1
  20. Format settings                          : CABAC / 4 Ref Frames
  21. Format settings, CABAC                   : Yes
  22. Format settings, ReFrames                : 4 frames
  23. Codec ID                                 : V_MPEG4/ISO/AVC
  24. Duration                                 : 1 h 16 min
  25. Bit rate mode                            : Variable
  26. Bit rate                                 : 11.8 Mb/s
  27. Maximum bit rate                         : 38.0 Mb/s
  28. Width                                    : 1 920 pixels
  29. Height                                   : 1 080 pixels
  30. Display aspect ratio                     : 16:9
  31. Frame rate mode                          : Constant
  32. Frame rate                               : 23.976 (24000/1001) FPS
  33. Color space                              : YUV
  34. Chroma subsampling                       : 4:2:0
  35. Bit depth                                : 8 bits
  36. Scan type                                : Progressive
  37. Bits/(Pixel*Frame)                       : 0.237
  38. Stream size                              : 6.35 GiB (82%)
  39. Title                                    : MPEG-4 AVC Video  /11997 kbps  / 1080p / 23.976 fps / 16:9 / High Profile 4.1
  40. Language                                 : English
  41. Default                                  : Yes
  42. Forced                                   : No
  43.  
  44. Audio
  45. ID                                       : 2
  46. Format                                   : DTS
  47. Format/Info                              : Digital Theater Systems
  48. Format profile                           : MA / Core
  49. Codec ID                                 : A_DTS
  50. Duration                                 : 1 h 16 min
  51. Bit rate mode                            : Variable / Constant
  52. Bit rate                                 : 2 446 kb/s / 1 509 kb/s
  53. Channel(s)                               : 6 channels
  54. Channel positions                        : Front: L C R, Side: L R, LFE
  55. Sampling rate                            : 48.0 kHz
  56. Frame rate                               : 93.750 FPS (512 SPF)
  57. Bit depth                                : 24 bits
  58. Compression mode                         : Lossless / Lossy
  59. Stream size                              : 1.32 GiB (17%)
  60. Title                                    : DTS-HD Master Audio  /English/  2446 kbps/ 5.1 / 48 kHz / 2446 kbps / 24-bit (DTS Core: 5.1 / 48 kHz / 1509 kbps / 24-bit)
  61. Language                                 : English
  62. Default                                  : Yes
  63. Forced                                   : No
  64.  
  65. Text #1
  66. ID                                       : 3
  67. Format                                   : PGS
  68. Codec ID                                 : S_HDMV/PGS
  69. Codec ID/Info                            : Picture based subtitle format used on BDs/HD-DVDs
  70. Duration                                 : 1 h 16 min
  71. Bit rate                                 : 44.0 kb/s
  72. Count of elements                        : 2702
  73. Stream size                              : 24.0 MiB (0%)
  74. Title                                    : SDH
  75. Language                                 : English
  76. Default                                  : No
  77. Forced                                   : No
  78.  
  79. Text #2
  80. ID                                       : 4
  81. Format                                   : PGS
  82. Codec ID                                 : S_HDMV/PGS
  83. Codec ID/Info                            : Picture based subtitle format used on BDs/HD-DVDs
  84. Duration                                 : 1 h 16 min
  85. Bit rate                                 : 36.3 kb/s
  86. Count of elements                        : 2312
  87. Stream size                              : 19.8 MiB (0%)
  88. Language                                 : French
  89. Default                                  : No
  90. Forced                                   : No
  91.  
  92. Text #3
  93. ID                                       : 5
  94. Format                                   : PGS
  95. Codec ID                                 : S_HDMV/PGS
  96. Codec ID/Info                            : Picture based subtitle format used on BDs/HD-DVDs
  97. Duration                                 : 1 h 16 min
  98. Bit rate                                 : 39.4 kb/s
  99. Count of elements                        : 2308
  100. Stream size                              : 21.6 MiB (0%)
  101. Language                                 : Spanish
  102. Default                                  : No
  103. Forced                                   : No
  104.  
  105. Text #4
  106. ID                                       : 6
  107. Format                                   : PGS
  108. Codec ID                                 : S_HDMV/PGS
  109. Codec ID/Info                            : Picture based subtitle format used on BDs/HD-DVDs
  110. Duration                                 : 1 h 16 min
  111. Bit rate                                 : 49.5 kb/s
  112. Count of elements                        : 2752
  113. Stream size                              : 27.1 MiB (0%)
  114. Language                                 : German
  115. Default                                  : No
  116. Forced                                   : No
  117.  
  118. Menu
  119. 00:00:00.000                             : :Chapter 1
  120. 00:07:53.598                             : :Chapter 2
  121. 00:13:38.484                             : :Chapter 3
  122. 00:21:22.239                             : :Chapter 4
  123. 00:29:00.280                             : :Chapter 5
  124. 00:37:13.481                             : :Chapter 6
  125. 00:46:42.091                             : :Chapter 7
  126. 00:53:44.847                             : :Chapter 8
  127. 01:03:11.705                             : :Chapter 9
  128. 01:13:37.246                             : :Chapter 10
RAW Paste Data
We use cookies for various purposes including analytics. By continuing to use Pastebin, you agree to our use of cookies as described in the Cookies Policy. OK, I Understand
Top