HYBRID_BEING

[Doki] BanG Dream! - 02 (1280x720 Hi10P AAC) [87EB8E33].mkv

Mar 2nd, 2017
183
Never
Not a member of Pastebin yet? Sign Up, it unlocks many cool features!
  1. General
  2. Unique ID : 229252761591156370873739432013929773179 (0xAC7879D0880DF13DB1FE420B4919F87B)
  3. Complete name : [Doki] BanG Dream! - 02 (1280x720 Hi10P AAC) [87EB8E33].mkv
  4. Format : Matroska
  5. Format version : Version 4 / Version 2
  6. File size : 251 MiB
  7. Duration : 23mn 42s
  8. Overall bit rate : 1 479 Kbps
  9. Movie name : [Doki] BanG Dream! - 02 (1280x720 Hi10P AAC).mkv
  10. Encoded date : UTC 2017-01-30 22:08:39
  11. Writing application : mkvmerge v9.8.0 ('Kuglblids') 64bit
  12. Writing library : libebml v1.3.4 + libmatroska v1.4.5
  13. Attachments : AnjaEliane.ttf / candara.ttf / candarai.ttf / GILLUBCD.TTF / HelveticaNeue.otf / HelveticaNeueLTStd-LtEx.otf / IwaGyoPro-Bd-Kami.ttf / LLCHARLO.TTF / rounded-x-mplus-2c-heavy.ttf / SNsanafonmaru.ttf / VestaPro-Bold.otf / VestaPro-BoldItalic.otf
  14.  
  15. Video
  16. ID : 1
  17. Format : AVC
  18. Format/Info : Advanced Video Codec
  19. Format profile : High 10@L5.1
  20. Format settings, CABAC : Yes
  21. Format settings, ReFrames : 16 frames
  22. Codec ID : V_MPEG4/ISO/AVC
  23. Duration : 23mn 42s
  24. Bit rate : 1 283 Kbps
  25. Width : 1 280 pixels
  26. Height : 720 pixels
  27. Display aspect ratio : 16:9
  28. Frame rate mode : Constant
  29. Frame rate : 23.976 (24000/1001) fps
  30. Color space : YUV
  31. Chroma subsampling : 4:2:0
  32. Bit depth : 10 bits
  33. Scan type : Progressive
  34. Bits/(Pixel*Frame) : 0.058
  35. Stream size : 218 MiB (87%)
  36. Title : Hi10P
  37. Writing library : x264 core 148 r2744 b97ae06
  38. Encoding settings : cabac=1 / ref=16 / deblock=1:0:0 / analyse=0x3:0x133 / me=umh / subme=10 / psy=1 / psy_rd=1.00:0.00 / mixed_ref=1 / me_range=24 / chroma_me=1 / trellis=2 / 8x8dct=1 / cqm=0 / deadzone=21,11 / fast_pskip=1 / chroma_qp_offset=-2 / threads=12 / lookahead_threads=2 / sliced_threads=0 / nr=0 / decimate=1 / interlaced=0 / bluray_compat=0 / constrained_intra=0 / bframes=8 / b_pyramid=2 / b_adapt=2 / b_bias=0 / direct=3 / weightb=1 / open_gop=0 / weightp=2 / keyint=250 / keyint_min=23 / scenecut=40 / intra_refresh=0 / rc_lookahead=60 / rc=crf / mbtree=1 / crf=18.0 / qcomp=0.60 / qpmin=0 / qpmax=81 / qpstep=4 / ip_ratio=1.40 / aq=1:1.00
  39. Language : Japanese
  40. Default : Yes
  41. Forced : No
  42.  
  43. Audio
  44. ID : 2
  45. Format : AAC
  46. Format/Info : Advanced Audio Codec
  47. Format profile : LC
  48. Codec ID : A_AAC
  49. Duration : 23mn 42s
  50. Bit rate : 128 Kbps
  51. Channel(s) : 2 channels
  52. Channel positions : Front: L R
  53. Sampling rate : 44.1 KHz
  54. Frame rate : 43.066 fps (1024 spf)
  55. Compression mode : Lossy
  56. Stream size : 21.7 MiB (9%)
  57. Title : AAC
  58. Language : Japanese
  59. Default : Yes
  60. Forced : No
  61.  
  62. Text
  63. ID : 3
  64. Format : ASS
  65. Codec ID : S_TEXT/ASS
  66. Codec ID/Info : Advanced Sub Station Alpha
  67. Duration : 23mn 22s
  68. Bit rate : 4 774 bps
  69. Count of elements : 3614
  70. Compression mode : Lossless
  71. Stream size : 818 KiB (0%)
  72. Title : ASS
  73. Language : English
  74. Default : Yes
  75. Forced : No
  76.  
  77. Menu
  78. 00:00:00.000 : en:Prologue
  79. 00:01:03.981 : en:OP
  80. 00:02:34.029 : en:Part A
  81. 00:10:51.985 : en:Part B
  82. 00:21:17.985 : en:ED
  83. 00:22:48.033 : en:Preview
RAW Paste Data