SHARE
TWEET

Untitled

mft39anton Nov 7th, 2018 79 Never
Not a member of Pastebin yet? Sign Up, it unlocks many cool features!
  1. General
  2. Unique ID                                : 13270579157938971568027799132722685138 (0x9FBD21165BD669406C2F47DB7BFE4D2)
  3. Complete name                            : Z:\Roger.Waters.Wall.2014.720p.WEB-DL.TeamHD.mkv
  4. Format                                   : Matroska
  5. Format version                           : Version 4
  6. File size                                : 4.23 GiB
  7. Duration                                 : 2 h 12 min
  8. Overall bit rate                         : 4 566 kb/s
  9. Encoded date                             : UTC 2018-11-07 11:57:46
  10. Writing application                      : mkvmerge v28.2.0 ('The Awakening') 64-bit
  11. Writing library                          : libebml v1.3.6 + libmatroska v1.4.9
  12.  
  13. Video
  14. ID                                       : 2
  15. Format                                   : AVC
  16. Format/Info                              : Advanced Video Codec
  17. Format profile                           : Main@L3.1
  18. Format settings                          : 2 Ref Frames
  19. Format settings, CABAC                   : No
  20. Format settings, RefFrames               : 2 frames
  21. Codec ID                                 : V_MPEG4/ISO/AVC
  22. Duration                                 : 2 h 12 min
  23. Bit rate                                 : 4 050 kb/s
  24. Width                                    : 1 280 pixels
  25. Height                                   : 532 pixels
  26. Display aspect ratio                     : 2.40:1
  27. Frame rate mode                          : Constant
  28. Frame rate                               : 23.976 (23976/1000) FPS
  29. Color space                              : YUV
  30. Chroma subsampling                       : 4:2:0
  31. Bit depth                                : 8 bits
  32. Scan type                                : Progressive
  33. Bits/(Pixel*Frame)                       : 0.248
  34. Stream size                              : 3.75 GiB (89%)
  35. Language                                 : English
  36. Default                                  : Yes
  37. Forced                                   : No
  38. Color range                              : Limited
  39. Color primaries                          : BT.709
  40. Transfer characteristics                 : BT.709
  41. Matrix coefficients                      : BT.709
  42.  
  43. Audio #1
  44. ID                                       : 1
  45. Format                                   : AAC LC
  46. Format/Info                              : Advanced Audio Codec Low Complexity
  47. Codec ID                                 : A_AAC-2
  48. Duration                                 : 2 h 12 min
  49. Bit rate                                 : 129 kb/s
  50. Channel(s)                               : 2 channels
  51. Channel layout                           : L R
  52. Sampling rate                            : 48.0 kHz
  53. Frame rate                               : 46.875 FPS (1024 SPF)
  54. Compression mode                         : Lossy
  55. Delay relative to video                  : 171 ms
  56. Stream size                              : 122 MiB (3%)
  57. Language                                 : English
  58. Default                                  : Yes
  59. Forced                                   : No
  60.  
  61. Audio #2
  62. ID                                       : 3
  63. Format                                   : AC-3
  64. Format/Info                              : Audio Coding 3
  65. Commercial name                          : Dolby Digital
  66. Codec ID                                 : A_AC3
  67. Duration                                 : 2 h 12 min
  68. Bit rate mode                            : Constant
  69. Bit rate                                 : 384 kb/s
  70. Channel(s)                               : 6 channels
  71. Channel layout                           : L R C LFE Ls Rs
  72. Sampling rate                            : 48.0 kHz
  73. Frame rate                               : 31.250 FPS (1536 SPF)
  74. Bit depth                                : 16 bits
  75. Compression mode                         : Lossy
  76. Stream size                              : 364 MiB (8%)
  77. Language                                 : English
  78. Service kind                             : Complete Main
  79. Default                                  : No
  80. Forced                                   : No
  81.  
  82. Text #1
  83. ID                                       : 4
  84. Format                                   : UTF-8
  85. Codec ID                                 : S_TEXT/UTF8
  86. Codec ID/Info                            : UTF-8 Plain Text
  87. Duration                                 : 2 h 7 min
  88. Bit rate                                 : 18 b/s
  89. Count of elements                        : 365
  90. Stream size                              : 17.6 KiB (0%)
  91. Language                                 : Arabic
  92. Default                                  : No
  93. Forced                                   : No
  94.  
  95. Text #2
  96. ID                                       : 5
  97. Format                                   : UTF-8
  98. Codec ID                                 : S_TEXT/UTF8
  99. Codec ID/Info                            : UTF-8 Plain Text
  100. Duration                                 : 2 h 7 min
  101. Bit rate                                 : 21 b/s
  102. Count of elements                        : 384
  103. Stream size                              : 19.8 KiB (0%)
  104. Language                                 : Bulgarian
  105. Default                                  : No
  106. Forced                                   : No
  107.  
  108. Text #3
  109. ID                                       : 6
  110. Format                                   : UTF-8
  111. Codec ID                                 : S_TEXT/UTF8
  112. Codec ID/Info                            : UTF-8 Plain Text
  113. Duration                                 : 2 h 7 min
  114. Bit rate                                 : 11 b/s
  115. Count of elements                        : 382
  116. Stream size                              : 10.7 KiB (0%)
  117. Language                                 : Czech
  118. Default                                  : No
  119. Forced                                   : No
  120.  
  121. Text #4
  122. ID                                       : 7
  123. Format                                   : UTF-8
  124. Codec ID                                 : S_TEXT/UTF8
  125. Codec ID/Info                            : UTF-8 Plain Text
  126. Duration                                 : 2 h 7 min
  127. Bit rate                                 : 12 b/s
  128. Count of elements                        : 379
  129. Stream size                              : 11.5 KiB (0%)
  130. Language                                 : Danish
  131. Default                                  : No
  132. Forced                                   : No
  133.  
  134. Text #5
  135. ID                                       : 8
  136. Format                                   : UTF-8
  137. Codec ID                                 : S_TEXT/UTF8
  138. Codec ID/Info                            : UTF-8 Plain Text
  139. Duration                                 : 2 h 7 min
  140. Bit rate                                 : 12 b/s
  141. Count of elements                        : 380
  142. Stream size                              : 12.1 KiB (0%)
  143. Language                                 : Dutch
  144. Default                                  : No
  145. Forced                                   : No
  146.  
  147. Text #6
  148. ID                                       : 9
  149. Format                                   : UTF-8
  150. Codec ID                                 : S_TEXT/UTF8
  151. Codec ID/Info                            : UTF-8 Plain Text
  152. Duration                                 : 2 h 7 min
  153. Bit rate                                 : 45 b/s
  154. Count of elements                        : 1121
  155. Stream size                              : 42.0 KiB (0%)
  156. Language                                 : English
  157. Default                                  : No
  158. Forced                                   : No
  159.  
  160. Text #7
  161. ID                                       : 10
  162. Format                                   : UTF-8
  163. Codec ID                                 : S_TEXT/UTF8
  164. Codec ID/Info                            : UTF-8 Plain Text
  165. Duration                                 : 2 h 6 min
  166. Bit rate                                 : 30 b/s
  167. Count of elements                        : 947
  168. Stream size                              : 28.4 KiB (0%)
  169. Language                                 : English
  170. Default                                  : No
  171. Forced                                   : No
  172.  
  173. Text #8
  174. ID                                       : 11
  175. Format                                   : UTF-8
  176. Codec ID                                 : S_TEXT/UTF8
  177. Codec ID/Info                            : UTF-8 Plain Text
  178. Duration                                 : 2 h 7 min
  179. Bit rate                                 : 13 b/s
  180. Count of elements                        : 382
  181. Stream size                              : 12.2 KiB (0%)
  182. Language                                 : Estonian
  183. Default                                  : No
  184. Forced                                   : No
  185.  
  186. Text #9
  187. ID                                       : 12
  188. Format                                   : UTF-8
  189. Codec ID                                 : S_TEXT/UTF8
  190. Codec ID/Info                            : UTF-8 Plain Text
  191. Duration                                 : 2 h 7 min
  192. Bit rate                                 : 11 b/s
  193. Count of elements                        : 382
  194. Stream size                              : 11.0 KiB (0%)
  195. Language                                 : Finnish
  196. Default                                  : No
  197. Forced                                   : No
  198.  
  199. Text #10
  200. ID                                       : 13
  201. Format                                   : UTF-8
  202. Codec ID                                 : S_TEXT/UTF8
  203. Codec ID/Info                            : UTF-8 Plain Text
  204. Duration                                 : 2 h 11 min
  205. Bit rate                                 : 12 b/s
  206. Count of elements                        : 358
  207. Stream size                              : 11.9 KiB (0%)
  208. Language                                 : French
  209. Default                                  : No
  210. Forced                                   : No
  211.  
  212. Text #11
  213. ID                                       : 14
  214. Format                                   : UTF-8
  215. Codec ID                                 : S_TEXT/UTF8
  216. Codec ID/Info                            : UTF-8 Plain Text
  217. Duration                                 : 2 h 7 min
  218. Bit rate                                 : 14 b/s
  219. Count of elements                        : 382
  220. Stream size                              : 13.1 KiB (0%)
  221. Language                                 : German
  222. Default                                  : No
  223. Forced                                   : No
  224.  
  225. Text #12
  226. ID                                       : 15
  227. Format                                   : UTF-8
  228. Codec ID                                 : S_TEXT/UTF8
  229. Codec ID/Info                            : UTF-8 Plain Text
  230. Duration                                 : 2 h 7 min
  231. Bit rate                                 : 23 b/s
  232. Count of elements                        : 384
  233. Stream size                              : 21.5 KiB (0%)
  234. Language                                 : Greek
  235. Default                                  : No
  236. Forced                                   : No
  237.  
  238. Text #13
  239. ID                                       : 16
  240. Format                                   : UTF-8
  241. Codec ID                                 : S_TEXT/UTF8
  242. Codec ID/Info                            : UTF-8 Plain Text
  243. Duration                                 : 2 h 7 min
  244. Bit rate                                 : 32 b/s
  245. Count of elements                        : 384
  246. Stream size                              : 30.6 KiB (0%)
  247. Language                                 : Hindi
  248. Default                                  : No
  249. Forced                                   : No
  250.  
  251. Text #14
  252. ID                                       : 17
  253. Format                                   : UTF-8
  254. Codec ID                                 : S_TEXT/UTF8
  255. Codec ID/Info                            : UTF-8 Plain Text
  256. Duration                                 : 2 h 7 min
  257. Bit rate                                 : 13 b/s
  258. Count of elements                        : 380
  259. Stream size                              : 12.3 KiB (0%)
  260. Language                                 : Hungarian
  261. Default                                  : No
  262. Forced                                   : No
  263.  
  264. Text #15
  265. ID                                       : 18
  266. Format                                   : UTF-8
  267. Codec ID                                 : S_TEXT/UTF8
  268. Codec ID/Info                            : UTF-8 Plain Text
  269. Duration                                 : 2 h 7 min
  270. Bit rate                                 : 13 b/s
  271. Count of elements                        : 398
  272. Stream size                              : 12.2 KiB (0%)
  273. Language                                 : Italian
  274. Default                                  : No
  275. Forced                                   : No
  276.  
  277. Text #16
  278. ID                                       : 19
  279. Format                                   : UTF-8
  280. Codec ID                                 : S_TEXT/UTF8
  281. Codec ID/Info                            : UTF-8 Plain Text
  282. Duration                                 : 2 h 7 min
  283. Bit rate                                 : 13 b/s
  284. Count of elements                        : 384
  285. Stream size                              : 12.2 KiB (0%)
  286. Language                                 : Latvian
  287. Default                                  : No
  288. Forced                                   : No
  289.  
  290. Text #17
  291. ID                                       : 20
  292. Format                                   : UTF-8
  293. Codec ID                                 : S_TEXT/UTF8
  294. Codec ID/Info                            : UTF-8 Plain Text
  295. Duration                                 : 2 h 7 min
  296. Bit rate                                 : 11 b/s
  297. Count of elements                        : 384
  298. Stream size                              : 11.1 KiB (0%)
  299. Language                                 : Lithuanian
  300. Default                                  : No
  301. Forced                                   : No
  302.  
  303. Text #18
  304. ID                                       : 21
  305. Format                                   : UTF-8
  306. Codec ID                                 : S_TEXT/UTF8
  307. Codec ID/Info                            : UTF-8 Plain Text
  308. Duration                                 : 2 h 7 min
  309. Bit rate                                 : 12 b/s
  310. Count of elements                        : 380
  311. Stream size                              : 11.5 KiB (0%)
  312. Language                                 : Norwegian
  313. Default                                  : No
  314. Forced                                   : No
  315.  
  316. Text #19
  317. ID                                       : 22
  318. Format                                   : UTF-8
  319. Codec ID                                 : S_TEXT/UTF8
  320. Codec ID/Info                            : UTF-8 Plain Text
  321. Duration                                 : 2 h 7 min
  322. Bit rate                                 : 12 b/s
  323. Count of elements                        : 382
  324. Stream size                              : 11.9 KiB (0%)
  325. Language                                 : Polish
  326. Default                                  : No
  327. Forced                                   : No
  328.  
  329. Text #20
  330. ID                                       : 23
  331. Format                                   : UTF-8
  332. Codec ID                                 : S_TEXT/UTF8
  333. Codec ID/Info                            : UTF-8 Plain Text
  334. Duration                                 : 2 h 7 min
  335. Bit rate                                 : 12 b/s
  336. Count of elements                        : 382
  337. Stream size                              : 12.0 KiB (0%)
  338. Language                                 : Portuguese
  339. Default                                  : No
  340. Forced                                   : No
  341.  
  342. Text #21
  343. ID                                       : 24
  344. Format                                   : UTF-8
  345. Codec ID                                 : S_TEXT/UTF8
  346. Codec ID/Info                            : UTF-8 Plain Text
  347. Duration                                 : 2 h 7 min
  348. Bit rate                                 : 20 b/s
  349. Count of elements                        : 384
  350. Stream size                              : 19.3 KiB (0%)
  351. Language                                 : Russian
  352. Default                                  : Yes
  353. Forced                                   : No
  354.  
  355. Text #22
  356. ID                                       : 25
  357. Format                                   : UTF-8
  358. Codec ID                                 : S_TEXT/UTF8
  359. Codec ID/Info                            : UTF-8 Plain Text
  360. Duration                                 : 2 h 7 min
  361. Bit rate                                 : 13 b/s
  362. Count of elements                        : 384
  363. Stream size                              : 12.3 KiB (0%)
  364. Language                                 : Spanish
  365. Default                                  : No
  366. Forced                                   : No
  367.  
  368. Text #23
  369. ID                                       : 26
  370. Format                                   : UTF-8
  371. Codec ID                                 : S_TEXT/UTF8
  372. Codec ID/Info                            : UTF-8 Plain Text
  373. Duration                                 : 2 h 7 min
  374. Bit rate                                 : 12 b/s
  375. Count of elements                        : 378
  376. Stream size                              : 11.6 KiB (0%)
  377. Language                                 : Swedish
  378. Default                                  : No
  379. Forced                                   : No
  380.  
  381. Text #24
  382. ID                                       : 27
  383. Format                                   : UTF-8
  384. Codec ID                                 : S_TEXT/UTF8
  385. Codec ID/Info                            : UTF-8 Plain Text
  386. Duration                                 : 2 h 7 min
  387. Bit rate                                 : 14 b/s
  388. Count of elements                        : 382
  389. Stream size                              : 13.5 KiB (0%)
  390. Language                                 : Turkish
  391. Default                                  : No
  392. Forced                                   : No
  393.  
  394. Menu
  395. 00:00:00.000                             : en:1
  396. 00:03:32.000                             : en:2
  397. 00:07:18.000                             : en:3
  398. 00:10:50.000                             : en:4
  399. 00:13:36.000                             : en:5
  400. 00:17:42.000                             : en:6
  401. 00:19:11.000                             : en:7
  402. 00:22:55.000                             : en:8
  403. 00:24:39.000                             : en:9
  404. 00:32:37.000                             : en:10
  405. 00:38:18.000                             : en:11
  406. 00:41:56.000                             : en:12
  407. 00:44:40.000                             : en:13
  408. 00:46:10.000                             : en:14
  409. 00:50:12.000                             : en:15
  410. 00:53:42.000                             : en:16
  411. 00:57:47.000                             : en:17
  412. 01:01:14.000                             : en:18
  413. 01:02:35.000                             : en:19
  414. 01:03:57.000                             : en:20
  415. 01:07:18.000                             : en:21
  416. 01:08:37.000                             : en:22
  417. 01:13:02.000                             : en:23
  418. 01:17:51.000                             : en:24
  419. 01:20:27.000                             : en:25
  420. 01:24:15.000                             : en:26
  421. 01:25:23.000                             : en:27
  422. 01:26:35.000                             : en:28
  423. 01:28:14.000                             : en:29
  424. 01:29:02.000                             : en:30
  425. 01:36:29.000                             : en:31
  426. 01:39:02.000                             : en:32
  427. 01:43:43.000                             : en:33
  428. 01:50:14.000                             : en:34
  429. 01:54:12.000                             : en:35
  430. 01:54:51.000                             : en:36
  431. 02:01:17.000                             : en:37
  432. 02:03:23.000                             : en:38
  433. 02:07:55.000                             : en:39
RAW Paste Data
We use cookies for various purposes including analytics. By continuing to use Pastebin, you agree to our use of cookies as described in the Cookies Policy. OK, I Understand
Not a member of Pastebin yet?
Sign Up, it unlocks many cool features!
 
Top