HYBRID_BEING

[DameDame!] Kill la Kill - 01.mp4

Nov 12th, 2013
159
Never
Not a member of Pastebin yet? Sign Up, it unlocks many cool features!
  1. General
  2. Format : MPEG-4
  3. Format profile : Base Media
  4. Codec ID : isom
  5. File size : 150 MiB
  6. Duration : 24mn 27s
  7. Overall bit rate : 858 Kbps
  8. Encoded date : UTC 2013-10-07 21:24:39
  9. Tagged date : UTC 2013-10-07 21:24:39
  10. Video #1
  11. ID : 1
  12. Format : AVC
  13. Format/Info : Advanced Video Codec
  14. Format profile : High@L3.0
  15. Format settings, CABAC : Yes
  16. Format settings, ReFrames : 4 frames
  17. Codec ID : avc1
  18. Codec ID/Info : Advanced Video Coding
  19. Duration : 24mn 26s
  20. Bit rate : 471 Kbps
  21. Maximum bit rate : 3 185 Kbps
  22. Width : 848 pixels
  23. Height : 480 pixels
  24. Display aspect ratio : 16:9
  25. Frame rate mode : Constant
  26. Frame rate : 23.976 fps
  27. Color space : YUV
  28. Chroma subsampling : 4:2:0
  29. Bit depth : 8 bits
  30. Scan type : Progressive
  31. Bits/(Pixel*Frame) : 0.048
  32. Stream size : 82.4 MiB (55%)
  33. Title : 264#trackID=1:fps=23.977@GPAC0.5.1-DEV-rev4283
  34. Writing library : x264 core 133 r2334 a3ac64b
  35. Encoding settings : cabac=1 / ref=3 / deblock=1:0:0 / analyse=0x3:0x113 / me=hex / subme=7 / psy=1 / psy_rd=1.00:0.00 / mixed_ref=1 / me_range=16 / chroma_me=1 / trellis=1 / 8x8dct=1 / cqm=0 / deadzone=21,11 / fast_pskip=1 / chroma_qp_offset=-2 / threads=6 / lookahead_threads=1 / sliced_threads=0 / nr=0 / decimate=1 / interlaced=0 / bluray_compat=0 / constrained_intra=0 / bframes=3 / b_pyramid=2 / b_adapt=1 / b_bias=0 / direct=1 / weightb=1 / open_gop=0 / weightp=2 / keyint=240 / keyint_min=23 / scenecut=40 / intra_refresh=0 / rc_lookahead=40 / rc=2pass / mbtree=1 / bitrate=471 / ratetol=1.0 / qcomp=0.60 / qpmin=0 / qpmax=69 / qpstep=4 / cplxblur=20.0 / qblur=0.5 / ip_ratio=1.40 / aq=1:1.00
  36. Encoded date : UTC 2013-10-07 21:24:39
  37. Tagged date : UTC 2013-10-07 21:24:41
  38. Audio #2
  39. ID : 2
  40. Format : AC-3
  41. Format/Info : Audio Coding 3
  42. Mode extension : CM (complete main)
  43. Format settings, Endianness : Big
  44. Codec ID : ac-3
  45. Duration : 24mn 27s
  46. Bit rate mode : Constant
  47. Bit rate : 384 Kbps
  48. Channel count : 2 channels
  49. Channel positions : Front: L R
  50. Sampling rate : 44.1 KHz
  51. Bit depth : 16 bits
  52. Compression mode : Lossy
  53. Stream size : 67.2 MiB (45%)
  54. Title : ac3#trackID=1@GPAC0.5.1-DEV-rev4283
  55. Encoded date : UTC 2013-10-07 21:24:40
  56. Tagged date : UTC 2013-10-07 21:24:41
RAW Paste Data