SHARE
TWEET

MR M FFMPEG A/V Sync

a guest Feb 4th, 2014 38 Never
Not a member of Pastebin yet? Sign Up, it unlocks many cool features!
  1. D:\>ffmpeg -v 9 -loglevel 99 -i "manual - MSNBC - 2014-02-02.ts"
  2. ffmpeg version N-60294-g549f052 Copyright (c) 2000-2014 the FFmpeg developers
  3.   built on Feb  1 2014 22:01:13 with gcc 4.8.2 (GCC)
  4.   configuration: --enable-gpl --enable-version3 --disable-w32threads --enable-av
  5. isynth --enable-bzlib --enable-fontconfig --enable-frei0r --enable-gnutls --enab
  6. le-iconv --enable-libass --enable-libbluray --enable-libcaca --enable-libfreetyp
  7. e --enable-libgsm --enable-libilbc --enable-libmodplug --enable-libmp3lame --ena
  8. ble-libopencore-amrnb --enable-libopencore-amrwb --enable-libopenjpeg --enable-l
  9. ibopus --enable-librtmp --enable-libschroedinger --enable-libsoxr --enable-libsp
  10. eex --enable-libtheora --enable-libtwolame --enable-libvidstab --enable-libvo-aa
  11. cenc --enable-libvo-amrwbenc --enable-libvorbis --enable-libvpx --enable-libwavp
  12. ack --enable-libx264 --enable-libxavs --enable-libxvid --enable-zlib
  13.   libavutil      52. 63.100 / 52. 63.100
  14.   libavutil      52. 63.100 / 52. 63.100
  15.   libavcodec     55. 49.101 / 55. 49.101
  16.   libavformat    55. 28.101 / 55. 28.101
  17.   libavdevice    55.  7.100 / 55.  7.100
  18.   libavfilter     4.  1.101 /  4.  1.101
  19.   libswscale      2.  5.101 /  2.  5.101
  20.   libswresample   0. 17.104 /  0. 17.104
  21.   libpostproc    52.  3.100 / 52.  3.100
  22. Splitting the commandline.
  23. Reading option '-v' ... matched as option 'v' (set logging level) with argument
  24. '9'.
  25. Reading option '-loglevel' ... matched as option 'loglevel' (set logging level)
  26. with argument '99'.
  27. Reading option '-i' ... matched as input file with argument 'manual - MSNBC - 20
  28. 14-02-02.ts'.
  29. Finished splitting the commandline.
  30. Parsing a group of options: global .
  31. Applying option v (set logging level) with argument 9.
  32. Successfully parsed a group of options.
  33. Parsing a group of options: input file manual - MSNBC - 2014-02-02.ts.
  34. Successfully parsed a group of options.
  35. Opening an input file: manual - MSNBC - 2014-02-02.ts.
  36. [mpegts @ 00342ce0] Format mpegts probed with size=2048 and score=100
  37. [mpegts @ 00342ce0] Format mpegts probed with size=2048 and score=100
  38. [mpegts @ 00342ce0] stream=0 stream_type=81 pid=40 prog_reg_desc=
  39. [mpegts @ 00342ce0] stream=1 stream_type=81 pid=41 prog_reg_desc=
  40. [mpegts @ 00342ce0] stream=2 stream_type=2 pid=30 prog_reg_desc=
  41. [mpegts @ 00342ce0] Before avformat_find_stream_info() pos: 0 bytes read:32768 s
  42. eeks:0
  43. [mpegts @ 00342ce0] All programs have pmt, headers found
  44. [mpeg2video @ 0034d860] Invalid frame dimensions 0x0.
  45.     Last message repeated 3 times
  46. [mpegts @ 00342ce0] Continuity check failed for pid 32 expected 11 got 1
  47. [mpegts @ 00342ce0] stream=3 stream_type=81 pid=42 prog_reg_desc=
  48. [mpegts @ 00342ce0] Continuity check failed for pid 48 expected 5 got 14
  49. [mpegts @ 00342ce0] Continuity check failed for pid 0 expected 11 got 2
  50. [mpegts @ 00342ce0] Continuity check failed for pid 64 expected 5 got 13
  51. [mpegts @ 00342ce0] PES packet size mismatch
  52. [mpegts @ 00342ce0] max_analyze_duration 5000000 reached at 5021378 microseconds
  53.  
  54. rfps: 23.916667 0.019711
  55. rfps: 59.833333 0.016509
  56. [NULL @ 03e625c0] start time is not set in estimate_timings_from_pts
  57. [mpegts @ 00342ce0] PES packet size mismatch
  58. [mpegts @ 00342ce0] Could not find codec parameters for stream 3 (Audio: ac3 ([1
  59. 29][0][0][0] / 0x0081), 0 channels): unspecified sample format
  60. Consider increasing the value for the 'analyzeduration' and 'probesize' options
  61. [mpegts @ 00342ce0] After avformat_find_stream_info() pos: 0 bytes read:1953936
  62. seeks:2 frames:304
  63. Input #0, mpegts, from 'manual - MSNBC - 2014-02-02.ts':
  64.   Duration: 03:06:10.68, start: 0.078578, bitrate: 3754 kb/s
  65. Input #0, mpegts, from 'manual - MSNBC - 2014-02-02.ts':
  66.   Duration: 03:06:10.68, start: 0.078578, bitrate: 3754 kb/s
  67.   Program 137
  68.     Stream #0:0[0x40](eng), 64, 1/90000: Audio: ac3 ([129][0][0][0] / 0x0081), 4
  69. 8000 Hz, stereo, fltp, 192 kb/s
  70.     Stream #0:1[0x41](spa), 113, 1/90000: Audio: ac3 ([129][0][0][0] / 0x0081),
  71. 48000 Hz, stereo, fltp, 192 kb/s
  72.     Stream #0:2[0x30], 127, 1/90000: Video: mpeg2video (Main) ([2][0][0][0] / 0x
  73. 0002), yuv420p(tv), 704x480 [SAR 10:11 DAR 4:3], 1001/60000, max. 3080 kb/s, 29.
  74. 83 fps, 29.97 tbr, 90k tbn, 59.94 tbc
  75.   No Program
  76.     Stream #0:3[0x42](spa), 0, 1/90000: Audio: ac3 ([129][0][0][0] / 0x0081), 0
  77. channels
  78. Successfully opened the file.
  79. At least one output file must be specified
  80. [AVIOContext @ 0034d280] Statistics: 1953936 bytes read, 2 seeks
RAW Paste Data
We use cookies for various purposes including analytics. By continuing to use Pastebin, you agree to our use of cookies as described in the Cookies Policy. OK, I Understand
Not a member of Pastebin yet?
Sign Up, it unlocks many cool features!
 
Top