GrabHD

Untitled

Mar 17th, 2020
107
Never
Not a member of Pastebin yet? Sign Up, it unlocks many cool features!
  1. Общее
  2. Уникальный идентификатор : 290022321027929041953769663215554162390 (0xDA30446B34CD2F126ADCE290A3AE6ED6)
  3. Полное имя : R:Spies in Disguise (2019) BDRip 1080p [HEVC].mkv
  4. Формат : Matroska
  5. Версия формата : Version 4 / Version 2
  6. Размер файла : 7,25 Гбайт
  7. Продолжительность : 1 ч. 41 м.
  8. Общий поток : 10,2 Мбит/сек
  9. Название фильма : Spies in Disguise (2019)
  10. Дата кодирования : UTC 2020-03-16 04:49:40
  11. Программа кодирования : mkvmerge v43.0.0 ('The Quartermaster') 64-bit
  12. Библиотека кодирования : libebml v1.3.10 + libmatroska v1.5.2
  13. Обложка : Yes
  14. Attachments : cover.jpg
  15.  
  16. Видео
  17. Идентификатор : 1
  18. Формат : HEVC
  19. Формат/Информация : High Efficiency Video Coding
  20. Профиль формата : Main 10@L4.1@High
  21. Идентификатор кодека : V_MPEGH/ISO/HEVC
  22. Продолжительность : 1 ч. 41 м.
  23. Битрейт : 8971 Кбит/сек
  24. Ширина : 1920 пикселей
  25. Высота : 804 пикселя
  26. Соотношение сторон : 2,40:1
  27. Режим частоты кадров : Постоянный
  28. Частота кадров : 23,976 (23976/1000) кадра/сек
  29. Частота кадров в оригинале : 23,976 (24000/1001) кадра/сек
  30. Цветовое пространство : YUV
  31. Субдискретизация насыщенности : 4:2:0
  32. Битовая глубина : 10 бит
  33. Бит/(Пиксели*Кадры) : 0.242
  34. Размер потока : 6,38 Гбайт (88%)
  35. Библиотека кодирования : x265 3.3+1-g554c887ac:[Windows][MSVC 1924][64 bit] 10bit
  36. Настройки программы : cpuid=1111039 / frame-threads=3 / numa-pools=12 / wpp / no-pmode / no-pme / no-psnr / no-ssim / log-level=2 / input-csp=1 / input-res=1920x804 / interlace=0 / total-frames=136149 / level-idc=41 / high-tier=1 / uhd-bd=0 / ref=5 / no-allow-non-conformance / no-repeat-headers / annexb / no-aud / no-hrd / info / hash=0 / no-temporal-layers / open-gop / min-keyint=23 / keyint=240 / gop-lookahead=0 / bframes=14 / b-adapt=2 / b-pyramid / bframe-bias=0 / rc-lookahead=60 / lookahead-slices=4 / scenecut=40 / hist-scenecut=0 / radl=0 / no-splice / no-intra-refresh / ctu=32 / min-cu-size=8 / rect / amp / max-tu-size=32 / tu-inter-depth=4 / tu-intra-depth=4 / limit-tu=1 / rdoq-level=2 / dynamic-rd=0.00 / no-ssim-rd / signhide / no-tskip / nr-intra=0 / nr-inter=0 / no-constrained-intra / no-strong-intra-smoothing / max-merge=4 / limit-refs=2 / limit-modes / me=3 / subme=7 / merange=57 / temporal-mvp / no-frame-dup / no-hme / weightp / weightb / no-analyze-src-pics / deblock=-3:-3 / no-sao / no-sao-non-deblock / rd=6 / selective-sao=0 / no-early-skip / no-rskip / no-fast-intra / no-tskip-fast / no-cu-lossless / no-b-intra / no-splitrd-skip / rdpenalty=0 / psy-rd=2.00 / psy-rdoq=1.00 / no-rd-refine / no-lossless / cbqpoffs=0 / crqpoffs=0 / rc=crf / crf=20.0 / qcomp=0.65 / qpstep=4 / stats-write=0 / stats-read=0 / vbv-maxrate=50000 / vbv-bufsize=50000 / vbv-init=0.9 / crf-max=0.0 / crf-min=0.0 / ipratio=1.40 / pbratio=1.30 / aq-mode=1 / aq-strength=1.00 / no-cutree / zone-count=0 / no-strict-cbr / qg-size=32 / no-rc-grain / qpmax=69 / qpmin=0 / no-const-vbv / sar=1 / overscan=0 / videoformat=5 / range=0 / colorprim=1 / transfer=1 / colormatrix=1 / chromaloc=0 / display-window=0 / cll=0,0 / min-luma=0 / max-luma=1023 / log2-max-poc-lsb=8 / vui-timing-info / vui-hrd-info / slices=1 / no-opt-qp-pps / no-opt-ref-list-length-pps / no-multi-pass-opt-rps / scenecut-bias=0.05 / hist-threshold=0.01 / no-opt-cu-delta-qp / no-aq-motion / no-hdr10 / no-hdr10-opt / no-dhdr10-opt / no-idr-recovery-sei / analysis-reuse-level=0 / analysis-save-reuse-level=0 / analysis-load-reuse-level=0 / scale-factor=0 / refine-intra=0 / refine-inter=0 / refine-mv=1 / refine-ctu-distortion=0 / no-limit-sao / ctu-info=0 / no-lowpass-dct / refine-analysis-type=0 / copy-pic=1 / max-ausize-factor=1.0 / no-dynamic-refine / no-single-sei / no-hevc-aq / no-svt / no-field / qp-adaptation-range=1.00 / no-scenecut-aware-qpconformance-window-offsets / right=0 / bottom=0
  37. Default : Да
  38. Forced : Нет
  39. Цветовой диапазон : Limited
  40. Основные цвета : BT.709
  41. Характеристики трансфера : BT.709
  42. Коэффициенты матрицы : BT.709
  43.  
  44. Аудио #1
  45. Идентификатор : 2
  46. Формат : AC-3
  47. Формат/Информация : Audio Coding 3
  48. Идентификатор кодека : A_AC3
  49. Продолжительность : 1 ч. 41 м.
  50. Вид битрейта : Постоянный
  51. Битрейт : 384 Кбит/сек
  52. Каналы : 6 каналов
  53. Расположение каналов : Front: L C R, Side: L R, LFE
  54. Частота : 48,0 КГц
  55. Частота кадров : 31,250 кадров/сек (1536 SPF)
  56. Битовая глубина : 16 бит
  57. Метод сжатия : С потерями
  58. Размер потока : 280 Мбайт (4%)
  59. Заголовок : Dubbing [iTunes]
  60. Язык : Russian
  61. ServiceKind/Strin : Complete Main
  62. Default : Да
  63. Forced : Да
  64.  
  65. Аудио #2
  66. Идентификатор : 3
  67. Формат : AC-3
  68. Формат/Информация : Audio Coding 3
  69. Идентификатор кодека : A_AC3
  70. Продолжительность : 1 ч. 41 м.
  71. Вид битрейта : Постоянный
  72. Битрейт : 192 Кбит/сек
  73. Каналы : 2 канала
  74. Расположение каналов : Front: L R
  75. Частота : 48,0 КГц
  76. Частота кадров : 31,250 кадров/сек (1536 SPF)
  77. Битовая глубина : 16 бит
  78. Метод сжатия : С потерями
  79. Размер потока : 140 Мбайт (2%)
  80. Заголовок : Dubbing
  81. Язык : Ukrainian
  82. ServiceKind/Strin : Complete Main
  83. Default : Нет
  84. Forced : Нет
  85.  
  86. Аудио #3
  87. Идентификатор : 4
  88. Формат : AC-3
  89. Формат/Информация : Audio Coding 3
  90. Идентификатор кодека : A_AC3
  91. Продолжительность : 1 ч. 41 м.
  92. Вид битрейта : Постоянный
  93. Битрейт : 640 Кбит/сек
  94. Каналы : 6 каналов
  95. Расположение каналов : Front: L C R, Side: L R, LFE
  96. Частота : 48,0 КГц
  97. Частота кадров : 31,250 кадров/сек (1536 SPF)
  98. Битовая глубина : 16 бит
  99. Метод сжатия : С потерями
  100. Размер потока : 466 Мбайт (6%)
  101. Язык : English
  102. ServiceKind/Strin : Complete Main
  103. Default : Нет
  104. Forced : Нет
  105.  
  106. Текст #1
  107. Идентификатор : 5
  108. Формат : UTF-8
  109. Идентификатор кодека : S_TEXT/UTF8
  110. Идентификатор кодека/Информация : UTF-8 Plain Text
  111. Продолжительность : 1 ч. 40 м.
  112. Битрейт : 2 бит/сек
  113. ElementCount : 48
  114. Размер потока : 1,85 Кбайт (0%)
  115. Заголовок : Forced
  116. Язык : Russian
  117. Default : Да
  118. Forced : Да
  119.  
  120. Текст #2
  121. Идентификатор : 6
  122. Формат : UTF-8
  123. Идентификатор кодека : S_TEXT/UTF8
  124. Идентификатор кодека/Информация : UTF-8 Plain Text
  125. Продолжительность : 1 ч. 40 м.
  126. Битрейт : 79 бит/сек
  127. ElementCount : 1455
  128. Размер потока : 58,7 Кбайт (0%)
  129. Заголовок : Full
  130. Язык : Russian
  131. Default : Нет
  132. Forced : Нет
  133.  
  134. Текст #3
  135. Идентификатор : 7
  136. Формат : UTF-8
  137. Идентификатор кодека : S_TEXT/UTF8
  138. Идентификатор кодека/Информация : UTF-8 Plain Text
  139. Продолжительность : 1 ч. 40 м.
  140. Битрейт : 3 бит/сек
  141. ElementCount : 51
  142. Размер потока : 2,31 Кбайт (0%)
  143. Заголовок : Forced
  144. Язык : Ukrainian
  145. Default : Нет
  146. Forced : Нет
  147.  
  148. Текст #4
  149. Идентификатор : 8
  150. Формат : UTF-8
  151. Идентификатор кодека : S_TEXT/UTF8
  152. Идентификатор кодека/Информация : UTF-8 Plain Text
  153. Продолжительность : 1 ч. 40 м.
  154. Битрейт : 98 бит/сек
  155. ElementCount : 1456
  156. Размер потока : 72,2 Кбайт (0%)
  157. Заголовок : Full
  158. Язык : Ukrainian
  159. Default : Нет
  160. Forced : Нет
  161.  
  162. Текст #5
  163. Идентификатор : 9
  164. Формат : UTF-8
  165. Идентификатор кодека : S_TEXT/UTF8
  166. Идентификатор кодека/Информация : UTF-8 Plain Text
  167. Продолжительность : 1 ч. 18 м.
  168. Битрейт : 0 бит/сек
  169. ElementCount : 6
  170. Размер потока : 142 байт (0%)
  171. Заголовок : Forced Only
  172. Язык : English
  173. Default : Нет
  174. Forced : Нет
  175.  
  176. Текст #6
  177. Идентификатор : 10
  178. Формат : UTF-8
  179. Идентификатор кодека : S_TEXT/UTF8
  180. Идентификатор кодека/Информация : UTF-8 Plain Text
  181. Продолжительность : 1 ч. 31 м.
  182. Битрейт : 60 бит/сек
  183. ElementCount : 1573
  184. Размер потока : 40,7 Кбайт (0%)
  185. Язык : English
  186. Default : Нет
  187. Forced : Нет
  188.  
  189. Текст #7
  190. Идентификатор : 11
  191. Формат : UTF-8
  192. Идентификатор кодека : S_TEXT/UTF8
  193. Идентификатор кодека/Информация : UTF-8 Plain Text
  194. Продолжительность : 1 ч. 41 м.
  195. Битрейт : 67 бит/сек
  196. ElementCount : 1905
  197. Размер потока : 50,0 Кбайт (0%)
  198. Заголовок : SDH
  199. Язык : English
  200. Default : Нет
  201. Forced : Нет
  202.  
  203. Меню
  204. 00:00:00.000 : :Chapter 1
  205. 00:04:09.499 : :Chapter 2
  206. 00:06:54.497 : :Chapter 3
  207. 00:11:53.838 : :Chapter 4
  208. 00:15:31.013 : :Chapter 5
  209. 00:20:35.484 : :Chapter 6
  210. 00:23:20.858 : :Chapter 7
  211. 00:26:42.434 : :Chapter 8
  212. 00:30:59.524 : :Chapter 9
  213. 00:36:06.581 : :Chapter 10
  214. 00:41:34.951 : :Chapter 11
  215. 00:45:41.947 : :Chapter 12
  216. 00:49:57.786 : :Chapter 13
  217. 00:53:58.902 : :Chapter 14
  218. 00:56:34.308 : :Chapter 15
  219. 01:00:06.770 : :Chapter 16
  220. 01:08:46.914 : :Chapter 17
  221. 01:12:51.784 : :Chapter 18
  222. 01:17:34.275 : :Chapter 19
  223. 01:20:18.939 : :Chapter 20
  224. 01:23:19.077 : :Chapter 21
  225. 01:26:05.243 : :Chapter 22
  226. 01:29:47.173 : :Chapter 23
  227. 01:33:08.875 : :Chapter 24
RAW Paste Data