Ledger Nano X - The secure hardware wallet
SHARE
TWEET

Untitled

a guest Mar 28th, 2020 74 Never
Not a member of Pastebin yet? Sign Up, it unlocks many cool features!
  1. C:\Users\neko\Documents\Bandicam>ffmpeg -i bandicam 2020-03-28 14-24-34-714.avi
  2. ffmpeg version git-2020-03-27-e34157f Copyright (c) 2000-2020 the FFmpeg developers
  3.   built with gcc 9.2.1 (GCC) 20200122
  4.   configuration: --enable-gpl --enable-version3 --enable-sdl2 --enable-fontconfig --enable-gnutls --enable-iconv --enable-libass --enable-libdav1d --enable-libbluray --enable-libfreetype --enable-libmp3lame --enable-libopencore-amrnb --enable-libopencore-amrwb --enable-libopenjpeg --enable-libopus --enable-libshine --enable-libsnappy --enable-libsoxr --enable-libsrt --enable-libtheora --enable-libtwolame --enable-libvpx --enable-libwavpack --enable-libwebp --enable-libx264 --enable-libx265 --enable-libxml2 --enable-libzimg --enable-lzma --enable-zlib --enable-gmp --enable-libvidstab --enable-libvorbis --enable-libvo-amrwbenc --enable-libmysofa --enable-libspeex --enable-libxvid --enable-libaom --enable-libmfx --enable-ffnvcodec --enable-cuda-llvm --enable-cuvid --enable-d3d11va --enable-nvenc --enable-nvdec --enable-dxva2 --enable-avisynth --enable-libopenmpt --enable-amf
  5.   libavutil      56. 42.101 / 56. 42.101
  6.   libavcodec     58. 76.100 / 58. 76.100
  7.   libavformat    58. 42.100 / 58. 42.100
  8.   libavdevice    58.  9.103 / 58.  9.103
  9.   libavfilter     7. 77.100 /  7. 77.100
  10.   libswscale      5.  6.101 /  5.  6.101
  11.   libswresample   3.  6.100 /  3.  6.100
  12.   libpostproc    55.  6.100 / 55.  6.100
  13. bandicam: No such file or directory
  14.  
  15. C:\Users\neko\Documents\Bandicam>ffmpeg -i "bandicam 2020-03-28 14-24-34-714.avi"
  16. ffmpeg version git-2020-03-27-e34157f Copyright (c) 2000-2020 the FFmpeg developers
  17.   built with gcc 9.2.1 (GCC) 20200122
  18.   configuration: --enable-gpl --enable-version3 --enable-sdl2 --enable-fontconfig --enable-gnutls --enable-iconv --enable-libass --enable-libdav1d --enable-libbluray --enable-libfreetype --enable-libmp3lame --enable-libopencore-amrnb --enable-libopencore-amrwb --enable-libopenjpeg --enable-libopus --enable-libshine --enable-libsnappy --enable-libsoxr --enable-libsrt --enable-libtheora --enable-libtwolame --enable-libvpx --enable-libwavpack --enable-libwebp --enable-libx264 --enable-libx265 --enable-libxml2 --enable-libzimg --enable-lzma --enable-zlib --enable-gmp --enable-libvidstab --enable-libvorbis --enable-libvo-amrwbenc --enable-libmysofa --enable-libspeex --enable-libxvid --enable-libaom --enable-libmfx --enable-ffnvcodec --enable-cuda-llvm --enable-cuvid --enable-d3d11va --enable-nvenc --enable-nvdec --enable-dxva2 --enable-avisynth --enable-libopenmpt --enable-amf
  19.   libavutil      56. 42.101 / 56. 42.101
  20.   libavcodec     58. 76.100 / 58. 76.100
  21.   libavformat    58. 42.100 / 58. 42.100
  22.   libavdevice    58.  9.103 / 58.  9.103
  23.   libavfilter     7. 77.100 /  7. 77.100
  24.   libswscale      5.  6.101 /  5.  6.101
  25.   libswresample   3.  6.100 /  3.  6.100
  26.   libpostproc    55.  6.100 / 55.  6.100
  27. [avi @ 0000025739a5a980] non-interleaved AVI
  28. Guessed Channel Layout for Input Stream #0.1 : stereo
  29. Input #0, avi, from 'bandicam 2020-03-28 14-24-34-714.avi':
  30.   Metadata:
  31.     encoder         : Bandicam 4.5.7.1660 / GDI
  32.   Duration: 00:38:01.77, start: 0.000000, bitrate: 26798 kb/s
  33.     Stream #0:0: Video: mjpeg (Baseline) (MJPG / 0x47504A4D), yuvj420p(pc, bt470bg/unknown/unknown), 640x480 [SAR 1:1 DAR 4:3], 25252 kb/s, 60 fps, 60 tbr, 60 tbn, 60 tbc
  34.     Stream #0:1: Audio: pcm_s16le ([1][0][0][0] / 0x0001), 48000 Hz, stereo, s16, 1536 kb/s
  35. At least one output file must be specified
RAW Paste Data
We use cookies for various purposes including analytics. By continuing to use Pastebin, you agree to our use of cookies as described in the Cookies Policy. OK, I Understand
Top