GrabHD

Untitled

Apr 13th, 2020
18
Never
Not a member of Pastebin yet? Sign Up, it unlocks many cool features!
  1. General
  2. Unique ID : 224384193161269677403386287679438915088 (0xA8CED2DBC073EF60F93D9E499E9D0610)
  3. Complete name : E:Video111Sonic.the.Hedgehog.2020.AMZN.D.MVO.WEB-DL.1080p.seleZen.mkv
  4. Format : Matroska
  5. Format version : Version 4
  6. File size : 5.92 GiB
  7. Duration : 1 h 38 min
  8. Overall bit rate : 8 576 kb/s
  9. Movie name : Sonic the Hedgehog 2020 from селезень
  10. Encoded date : UTC 2020-04-13 18:27:44
  11. Writing application : mkvmerge v40.0.0 ('Old Town Road + Pony') 64-bit
  12. Writing library : libebml v1.3.9 + libmatroska v1.5.2
  13.  
  14. Video
  15. ID : 1
  16. Format : AVC
  17. Format/Info : Advanced Video Codec
  18. Format profile : High@L4
  19. Format settings : CABAC / 4 Ref Frames
  20. Format settings, CABAC : Yes
  21. Format settings, Reference : 4 frames
  22. Codec ID : V_MPEG4/ISO/AVC
  23. Duration : 1 h 38 min
  24. Bit rate mode : Constant
  25. Bit rate : 7 165 kb/s
  26. Nominal bit rate : 10 000 kb/s
  27. Width : 1 920 pixels
  28. Height : 800 pixels
  29. Display aspect ratio : 2.40:1
  30. Frame rate mode : Constant
  31. Frame rate : 23.976 (24000/1001) FPS
  32. Color space : YUV
  33. Chroma subsampling : 4:2:0
  34. Bit depth : 8 bits
  35. Scan type : Progressive
  36. Bits/(Pixel*Frame) : 0.195
  37. Stream size : 4.95 GiB (84%)
  38. Language : English
  39. Default : Yes
  40. Forced : No
  41. Color range : Limited
  42. Color primaries : BT.709
  43. Transfer characteristics : BT.709
  44. Matrix coefficients : BT.709
  45.  
  46. Audio #1
  47. ID : 2
  48. Format : AC-3
  49. Format/Info : Audio Coding 3
  50. Commercial name : Dolby Digital
  51. Codec ID : A_AC3
  52. Duration : 1 h 38 min
  53. Bit rate mode : Constant
  54. Bit rate : 384 kb/s
  55. Channel(s) : 6 channels
  56. Channel layout : L R C LFE Ls Rs
  57. Sampling rate : 48.0 kHz
  58. Frame rate : 31.250 FPS (1536 SPF)
  59. Compression mode : Lossy
  60. Stream size : 272 MiB (4%)
  61. Title : iTunes
  62. Language : Russian
  63. Service kind : Complete Main
  64. Default : Yes
  65. Forced : Yes
  66.  
  67. Audio #2
  68. ID : 3
  69. Format : AC-3
  70. Format/Info : Audio Coding 3
  71. Commercial name : Dolby Digital
  72. Codec ID : A_AC3
  73. Duration : 1 h 38 min
  74. Bit rate mode : Constant
  75. Bit rate : 192 kb/s
  76. Channel(s) : 2 channels
  77. Channel layout : L R
  78. Sampling rate : 48.0 kHz
  79. Frame rate : 31.250 FPS (1536 SPF)
  80. Compression mode : Lossy
  81. Stream size : 136 MiB (2%)
  82. Title : MVO [HDRezka Studio]
  83. Language : Russian
  84. Service kind : Complete Main
  85. Default : No
  86. Forced : No
  87.  
  88. Audio #3
  89. ID : 4
  90. Format : AC-3
  91. Format/Info : Audio Coding 3
  92. Commercial name : Dolby Digital
  93. Codec ID : A_AC3
  94. Duration : 1 h 38 min
  95. Bit rate mode : Constant
  96. Bit rate : 192 kb/s
  97. Channel(s) : 2 channels
  98. Channel layout : L R
  99. Sampling rate : 48.0 kHz
  100. Frame rate : 31.250 FPS (1536 SPF)
  101. Compression mode : Lossy
  102. Stream size : 136 MiB (2%)
  103. Title : iTunes
  104. Language : Ukrainian
  105. Service kind : Complete Main
  106. Default : No
  107. Forced : No
  108.  
  109. Audio #4
  110. ID : 5
  111. Format : E-AC-3
  112. Format/Info : Enhanced AC-3
  113. Commercial name : Dolby Digital Plus
  114. Codec ID : A_EAC3
  115. Duration : 1 h 38 min
  116. Bit rate mode : Constant
  117. Bit rate : 640 kb/s
  118. Channel(s) : 6 channels
  119. Channel layout : L R C LFE Ls Rs
  120. Sampling rate : 48.0 kHz
  121. Frame rate : 31.250 FPS (1536 SPF)
  122. Compression mode : Lossy
  123. Stream size : 453 MiB (7%)
  124. Title : Original
  125. Language : English
  126. Service kind : Complete Main
  127. Default : No
  128. Forced : No
  129.  
  130. Text #1
  131. ID : 6
  132. Format : UTF-8
  133. Codec ID : S_TEXT/UTF8
  134. Codec ID/Info : UTF-8 Plain Text
  135. Duration : 1 h 35 min
  136. Bit rate : 1 b/s
  137. Count of elements : 25
  138. Stream size : 992 Bytes (0%)
  139. Title : Forced
  140. Language : Russian
  141. Default : Yes
  142. Forced : Yes
  143.  
  144. Text #2
  145. ID : 7
  146. Format : UTF-8
  147. Codec ID : S_TEXT/UTF8
  148. Codec ID/Info : UTF-8 Plain Text
  149. Duration : 1 h 37 min
  150. Bit rate : 92 b/s
  151. Count of elements : 1294
  152. Stream size : 66.0 KiB (0%)
  153. Title : Full
  154. Language : Russian
  155. Default : No
  156. Forced : No
  157.  
  158. Text #3
  159. ID : 8
  160. Format : UTF-8
  161. Codec ID : S_TEXT/UTF8
  162. Codec ID/Info : UTF-8 Plain Text
  163. Duration : 1 h 35 min
  164. Bit rate : 1 b/s
  165. Count of elements : 29
  166. Stream size : 1.12 KiB (0%)
  167. Title : Forced
  168. Language : Ukrainian
  169. Default : No
  170. Forced : No
  171.  
  172. Text #4
  173. ID : 9
  174. Format : UTF-8
  175. Codec ID : S_TEXT/UTF8
  176. Codec ID/Info : UTF-8 Plain Text
  177. Duration : 1 h 37 min
  178. Bit rate : 89 b/s
  179. Count of elements : 1313
  180. Stream size : 64.0 KiB (0%)
  181. Title : Full
  182. Language : Ukrainian
  183. Default : No
  184. Forced : No
  185.  
  186. Text #5
  187. ID : 10
  188. Format : UTF-8
  189. Codec ID : S_TEXT/UTF8
  190. Codec ID/Info : UTF-8 Plain Text
  191. Duration : 1 h 31 min
  192. Bit rate : 66 b/s
  193. Count of elements : 1415
  194. Stream size : 44.3 KiB (0%)
  195. Title : Full
  196. Language : English
  197. Default : No
  198. Forced : No
  199.  
  200. Text #6
  201. ID : 11
  202. Format : UTF-8
  203. Codec ID : S_TEXT/UTF8
  204. Codec ID/Info : UTF-8 Plain Text
  205. Duration : 1 h 32 min
  206. Bit rate : 73 b/s
  207. Count of elements : 1661
  208. Stream size : 49.6 KiB (0%)
  209. Title : SDH
  210. Language : English
  211. Default : No
  212. Forced : No
  213.  
  214. Menu
  215. 00:00:00.000 : en:Studio Logo
  216. 00:00:51.000 : en:Scene 2
  217. 00:01:30.000 : en:Scene 3
  218. 00:03:43.000 : en:Title Sequence
  219. 00:03:51.000 : en:Scene 5
  220. 00:09:34.000 : en:Scene 6
  221. 00:17:02.000 : en:Scene 7
  222. 00:22:20.000 : en:Scene 8
  223. 00:31:35.000 : en:Scene 9
  224. 00:35:09.000 : en:Scene 10
  225. 00:38:29.000 : en:Scene 11
  226. 00:48:40.000 : en:Scene 12
  227. 00:59:41.000 : en:Scene 13
  228. 01:04:37.000 : en:Scene 14
  229. 01:12:43.000 : en:Scene 15
  230. 01:20:15.000 : en:Scene 16
  231. 01:25:41.000 : en:Scene 17
  232. 01:29:03.000 : en:Scene 18
  233. 01:30:27.000 : en:End Credits
  234. 01:32:05.000 : en:Scene 20
  235. 01:32:45.000 : en:End Credits
RAW Paste Data