Advertisement
trds

Untitled

Jan 18th, 2022
965
Never
Not a member of Pastebin yet? Sign Up, it unlocks many cool features!
  1. General
  2. Unique ID                                : 62250447714068033873959667856000905870 (0x2ED500088BCF04834D62D0A3B5EF728E)
  3. Complete name                            : D:\Encodes\The.Power.of.the.Dog.2021.720p.WEBRip.DDP5.1.Atmos.x264-playHD\The.Power.of.the.Dog.2021.720p.WEBRip.DDP5.1.Atmos.x264-playHD.mkv
  4. Format                                   : Matroska
  5. Format version                           : Version 4
  6. File size                                : 6.15 GiB
  7. Duration                                 : 2 h 8 min
  8. Overall bit rate                         : 6 837 kb/s
  9. Encoded date                             : UTC 2022-01-18 20:44:18
  10. Writing application                      : mkvmerge v56.1.0 ('My Friend') 64-bit
  11. Writing library                          : libebml v1.4.2 + libmatroska v1.6.4
  12.  
  13. Video
  14. ID                                       : 1
  15. Format                                   : AVC
  16. Format/Info                              : Advanced Video Codec
  17. Format profile                           : High@L4.1
  18. Format settings                          : CABAC / 11 Ref Frames
  19. Format settings, CABAC                   : Yes
  20. Format settings, Reference frames        : 11 frames
  21. Codec ID                                 : V_MPEG4/ISO/AVC
  22. Duration                                 : 2 h 8 min
  23. Bit rate                                 : 6 065 kb/s
  24. Width                                    : 1 280 pixels
  25. Height                                   : 562 pixels
  26. Display aspect ratio                     : 2.25:1
  27. Frame rate mode                          : Constant
  28. Frame rate                               : 24.000 FPS
  29. Color space                              : YUV
  30. Chroma subsampling                       : 4:2:0
  31. Bit depth                                : 8 bits
  32. Scan type                                : Progressive
  33. Bits/(Pixel*Frame)                       : 0.351
  34. Stream size                              : 5.45 GiB (89%)
  35. Writing library                          : x264 core 164 r3075+55M t_mod ~ Encoded by luvBB: JigSaw & droops16
  36. Encoding settings                        : cabac=1 / ref=11 / deblock=1:-3:-3 / analyse=0x3:0x133 / me=umh / subme=10 / psy=1 / fade_compensate=0.00 / psy_rd=1.00:0.00 / mixed_ref=1 / me_range=32 / chroma_me=1 / trellis=2 / 8x8dct=1 / cqm=0 / deadzone=21,11 / fast_pskip=0 / chroma_qp_offset=-2 / threads=12 / lookahead_threads=2 / sliced_threads=0 / nr=0 / decimate=0 / interlaced=0 / bluray_compat=0 / constrained_intra=0 / fgo=0 / bframes=9 / b_pyramid=2 / b_adapt=2 / b_bias=0 / direct=3 / weightb=1 / open_gop=0 / weightp=2 / keyint=250 / keyint_min=24 / scenecut=40 / intra_refresh=0 / rc=crf / mbtree=0 / crf=15.1000 / qcomp=0.60 / qpmin=0:0:0 / qpmax=69:69:69 / qpstep=4 / ip_ratio=1.30 / pb_ratio=1.20 / aq=3:0.85 / aq-sensitivity=10.00 / aq-factor=1.00:1.00:1.00 / aq2=0 / aq3=0
  37. Language                                 : English
  38. Default                                  : Yes
  39. Forced                                   : No
  40.  
  41. Audio
  42. ID                                       : 2
  43. Format                                   : E-AC-3 JOC
  44. Format/Info                              : Enhanced AC-3 with Joint Object Coding
  45. Commercial name                          : Dolby Digital Plus with Dolby Atmos
  46. Codec ID                                 : A_EAC3
  47. Duration                                 : 2 h 8 min
  48. Bit rate mode                            : Constant
  49. Bit rate                                 : 768 kb/s
  50. Channel(s)                               : 6 channels
  51. Channel layout                           : L R C LFE Ls Rs
  52. Sampling rate                            : 48.0 kHz
  53. Frame rate                               : 31.250 FPS (1536 SPF)
  54. Compression mode                         : Lossy
  55. Stream size                              : 707 MiB (11%)
  56. Language                                 : English
  57. Service kind                             : Complete Main
  58. Default                                  : Yes
  59. Forced                                   : No
  60. Complexity index                         : 16
  61. Number of dynamic objects                : 15
  62. Bed channel count                        : 1 channel
  63. Bed channel configuration                : LFE
  64.  
  65. Text #1
  66. ID                                       : 3
  67. Format                                   : UTF-8
  68. Codec ID                                 : S_TEXT/UTF8
  69. Codec ID/Info                            : UTF-8 Plain Text
  70. Duration                                 : 1 h 59 min
  71. Bit rate                                 : 29 b/s
  72. Count of elements                        : 920
  73. Stream size                              : 25.9 KiB (0%)
  74. Language                                 : English
  75. Default                                  : No
  76. Forced                                   : No
  77.  
  78. Text #2
  79. ID                                       : 4
  80. Format                                   : UTF-8
  81. Codec ID                                 : S_TEXT/UTF8
  82. Codec ID/Info                            : UTF-8 Plain Text
  83. Duration                                 : 2 h 4 min
  84. Bit rate                                 : 37 b/s
  85. Count of elements                        : 1246
  86. Stream size                              : 34.4 KiB (0%)
  87. Title                                    : SDH
  88. Language                                 : English
  89. Default                                  : No
  90. Forced                                   : No
  91.  
  92. Text #3
  93. ID                                       : 5
  94. Format                                   : UTF-8
  95. Codec ID                                 : S_TEXT/UTF8
  96. Codec ID/Info                            : UTF-8 Plain Text
  97. Duration                                 : 2 h 5 min
  98. Bit rate                                 : 46 b/s
  99. Count of elements                        : 902
  100. Stream size                              : 42.5 KiB (0%)
  101. Language                                 : Arabic
  102. Default                                  : No
  103. Forced                                   : No
  104.  
  105. Text #4
  106. ID                                       : 6
  107. Format                                   : UTF-8
  108. Codec ID                                 : S_TEXT/UTF8
  109. Codec ID/Info                            : UTF-8 Plain Text
  110. Duration                                 : 2 h 5 min
  111. Bit rate                                 : 26 b/s
  112. Count of elements                        : 911
  113. Stream size                              : 24.5 KiB (0%)
  114. Title                                    : Simplified
  115. Language                                 : Chinese
  116. Default                                  : No
  117. Forced                                   : No
  118.  
  119. Text #5
  120. ID                                       : 7
  121. Format                                   : UTF-8
  122. Codec ID                                 : S_TEXT/UTF8
  123. Codec ID/Info                            : UTF-8 Plain Text
  124. Duration                                 : 2 h 5 min
  125. Bit rate                                 : 26 b/s
  126. Count of elements                        : 881
  127. Stream size                              : 24.7 KiB (0%)
  128. Title                                    : Traditional
  129. Language                                 : Chinese
  130. Default                                  : No
  131. Forced                                   : No
  132.  
  133. Text #6
  134. ID                                       : 8
  135. Format                                   : UTF-8
  136. Codec ID                                 : S_TEXT/UTF8
  137. Codec ID/Info                            : UTF-8 Plain Text
  138. Duration                                 : 2 h 5 min
  139. Bit rate                                 : 23 b/s
  140. Count of elements                        : 869
  141. Stream size                              : 21.4 KiB (0%)
  142. Language                                 : Czech
  143. Default                                  : No
  144. Forced                                   : No
  145.  
  146. Text #7
  147. ID                                       : 9
  148. Format                                   : UTF-8
  149. Codec ID                                 : S_TEXT/UTF8
  150. Codec ID/Info                            : UTF-8 Plain Text
  151. Duration                                 : 2 h 6 min
  152. Bit rate                                 : 23 b/s
  153. Count of elements                        : 841
  154. Stream size                              : 21.8 KiB (0%)
  155. Language                                 : Danish
  156. Default                                  : No
  157. Forced                                   : No
  158.  
  159. Text #8
  160. ID                                       : 10
  161. Format                                   : UTF-8
  162. Codec ID                                 : S_TEXT/UTF8
  163. Codec ID/Info                            : UTF-8 Plain Text
  164. Duration                                 : 2 h 5 min
  165. Bit rate                                 : 23 b/s
  166. Count of elements                        : 780
  167. Stream size                              : 21.5 KiB (0%)
  168. Language                                 : Dutch
  169. Default                                  : No
  170. Forced                                   : No
  171.  
  172. Text #9
  173. ID                                       : 11
  174. Format                                   : UTF-8
  175. Codec ID                                 : S_TEXT/UTF8
  176. Codec ID/Info                            : UTF-8 Plain Text
  177. Duration                                 : 2 h 5 min
  178. Bit rate                                 : 22 b/s
  179. Count of elements                        : 851
  180. Stream size                              : 21.1 KiB (0%)
  181. Language                                 : Finnish
  182. Default                                  : No
  183. Forced                                   : No
  184.  
  185. Text #10
  186. ID                                       : 12
  187. Format                                   : UTF-8
  188. Codec ID                                 : S_TEXT/UTF8
  189. Codec ID/Info                            : UTF-8 Plain Text
  190. Duration                                 : 2 h 5 min
  191. Bit rate                                 : 25 b/s
  192. Count of elements                        : 856
  193. Stream size                              : 23.9 KiB (0%)
  194. Language                                 : French
  195. Default                                  : No
  196. Forced                                   : No
  197.  
  198. Text #11
  199. ID                                       : 13
  200. Format                                   : UTF-8
  201. Codec ID                                 : S_TEXT/UTF8
  202. Codec ID/Info                            : UTF-8 Plain Text
  203. Duration                                 : 2 h 5 min
  204. Bit rate                                 : 23 b/s
  205. Count of elements                        : 869
  206. Stream size                              : 21.9 KiB (0%)
  207. Language                                 : German
  208. Default                                  : No
  209. Forced                                   : No
  210.  
  211. Text #12
  212. ID                                       : 14
  213. Format                                   : UTF-8
  214. Codec ID                                 : S_TEXT/UTF8
  215. Codec ID/Info                            : UTF-8 Plain Text
  216. Duration                                 : 2 h 6 min
  217. Bit rate                                 : 41 b/s
  218. Count of elements                        : 875
  219. Stream size                              : 38.9 KiB (0%)
  220. Language                                 : Greek
  221. Default                                  : No
  222. Forced                                   : No
  223.  
  224. Text #13
  225. ID                                       : 15
  226. Format                                   : UTF-8
  227. Codec ID                                 : S_TEXT/UTF8
  228. Codec ID/Info                            : UTF-8 Plain Text
  229. Duration                                 : 2 h 5 min
  230. Bit rate                                 : 41 b/s
  231. Count of elements                        : 884
  232. Stream size                              : 37.9 KiB (0%)
  233. Language                                 : Hebrew
  234. Default                                  : No
  235. Forced                                   : No
  236.  
  237. Text #14
  238. ID                                       : 16
  239. Format                                   : UTF-8
  240. Codec ID                                 : S_TEXT/UTF8
  241. Codec ID/Info                            : UTF-8 Plain Text
  242. Duration                                 : 2 h 5 min
  243. Bit rate                                 : 23 b/s
  244. Count of elements                        : 882
  245. Stream size                              : 21.3 KiB (0%)
  246. Language                                 : Croatian
  247. Default                                  : No
  248. Forced                                   : No
  249.  
  250. Text #15
  251. ID                                       : 17
  252. Format                                   : UTF-8
  253. Codec ID                                 : S_TEXT/UTF8
  254. Codec ID/Info                            : UTF-8 Plain Text
  255. Duration                                 : 2 h 5 min
  256. Bit rate                                 : 25 b/s
  257. Count of elements                        : 866
  258. Stream size                              : 23.5 KiB (0%)
  259. Language                                 : Hungarian
  260. Default                                  : No
  261. Forced                                   : No
  262.  
  263. Text #16
  264. ID                                       : 18
  265. Format                                   : UTF-8
  266. Codec ID                                 : S_TEXT/UTF8
  267. Codec ID/Info                            : UTF-8 Plain Text
  268. Duration                                 : 2 h 5 min
  269. Bit rate                                 : 24 b/s
  270. Count of elements                        : 875
  271. Stream size                              : 22.8 KiB (0%)
  272. Language                                 : Indonesian
  273. Default                                  : No
  274. Forced                                   : No
  275.  
  276. Text #17
  277. ID                                       : 19
  278. Format                                   : UTF-8
  279. Codec ID                                 : S_TEXT/UTF8
  280. Codec ID/Info                            : UTF-8 Plain Text
  281. Duration                                 : 2 h 5 min
  282. Bit rate                                 : 22 b/s
  283. Count of elements                        : 865
  284. Stream size                              : 20.8 KiB (0%)
  285. Language                                 : Italian
  286. Default                                  : No
  287. Forced                                   : No
  288.  
  289. Text #18
  290. ID                                       : 20
  291. Format                                   : UTF-8
  292. Codec ID                                 : S_TEXT/UTF8
  293. Codec ID/Info                            : UTF-8 Plain Text
  294. Duration                                 : 2 h 5 min
  295. Bit rate                                 : 26 b/s
  296. Count of elements                        : 910
  297. Stream size                              : 24.1 KiB (0%)
  298. Language                                 : Japanese
  299. Default                                  : No
  300. Forced                                   : No
  301.  
  302. Text #19
  303. ID                                       : 21
  304. Format                                   : UTF-8
  305. Codec ID                                 : S_TEXT/UTF8
  306. Codec ID/Info                            : UTF-8 Plain Text
  307. Duration                                 : 2 h 5 min
  308. Bit rate                                 : 29 b/s
  309. Count of elements                        : 884
  310. Stream size                              : 27.0 KiB (0%)
  311. Language                                 : Korean
  312. Default                                  : No
  313. Forced                                   : No
  314.  
  315. Text #20
  316. ID                                       : 22
  317. Format                                   : UTF-8
  318. Codec ID                                 : S_TEXT/UTF8
  319. Codec ID/Info                            : UTF-8 Plain Text
  320. Duration                                 : 2 h 5 min
  321. Bit rate                                 : 23 b/s
  322. Count of elements                        : 879
  323. Stream size                              : 22.0 KiB (0%)
  324. Language                                 : Malay
  325. Default                                  : No
  326. Forced                                   : No
  327.  
  328. Text #21
  329. ID                                       : 23
  330. Format                                   : UTF-8
  331. Codec ID                                 : S_TEXT/UTF8
  332. Codec ID/Info                            : UTF-8 Plain Text
  333. Duration                                 : 2 h 5 min
  334. Bit rate                                 : 22 b/s
  335. Count of elements                        : 837
  336. Stream size                              : 20.8 KiB (0%)
  337. Language                                 : Norwegian Bokmal
  338. Default                                  : No
  339. Forced                                   : No
  340.  
  341. Text #22
  342. ID                                       : 24
  343. Format                                   : UTF-8
  344. Codec ID                                 : S_TEXT/UTF8
  345. Codec ID/Info                            : UTF-8 Plain Text
  346. Duration                                 : 2 h 5 min
  347. Bit rate                                 : 23 b/s
  348. Count of elements                        : 871
  349. Stream size                              : 21.9 KiB (0%)
  350. Language                                 : Polish
  351. Default                                  : No
  352. Forced                                   : No
  353.  
  354. Text #23
  355. ID                                       : 25
  356. Format                                   : UTF-8
  357. Codec ID                                 : S_TEXT/UTF8
  358. Codec ID/Info                            : UTF-8 Plain Text
  359. Duration                                 : 2 h 5 min
  360. Bit rate                                 : 25 b/s
  361. Count of elements                        : 871
  362. Stream size                              : 23.4 KiB (0%)
  363. Language                                 : Portuguese
  364. Default                                  : No
  365. Forced                                   : No
  366.  
  367. Text #24
  368. ID                                       : 26
  369. Format                                   : UTF-8
  370. Codec ID                                 : S_TEXT/UTF8
  371. Codec ID/Info                            : UTF-8 Plain Text
  372. Duration                                 : 2 h 5 min
  373. Bit rate                                 : 24 b/s
  374. Count of elements                        : 865
  375. Stream size                              : 22.7 KiB (0%)
  376. Title                                    : Brazilian
  377. Language                                 : Portuguese
  378. Default                                  : No
  379. Forced                                   : No
  380.  
  381. Text #25
  382. ID                                       : 27
  383. Format                                   : UTF-8
  384. Codec ID                                 : S_TEXT/UTF8
  385. Codec ID/Info                            : UTF-8 Plain Text
  386. Duration                                 : 2 h 5 min
  387. Bit rate                                 : 28 b/s
  388. Count of elements                        : 839
  389. Stream size                              : 25.8 KiB (0%)
  390. Language                                 : Romanian
  391. Default                                  : No
  392. Forced                                   : No
  393.  
  394. Text #26
  395. ID                                       : 28
  396. Format                                   : UTF-8
  397. Codec ID                                 : S_TEXT/UTF8
  398. Codec ID/Info                            : UTF-8 Plain Text
  399. Duration                                 : 2 h 5 min
  400. Bit rate                                 : 41 b/s
  401. Count of elements                        : 871
  402. Stream size                              : 38.6 KiB (0%)
  403. Language                                 : Russian
  404. Default                                  : No
  405. Forced                                   : No
  406.  
  407. Text #27
  408. ID                                       : 29
  409. Format                                   : UTF-8
  410. Codec ID                                 : S_TEXT/UTF8
  411. Codec ID/Info                            : UTF-8 Plain Text
  412. Duration                                 : 2 h 5 min
  413. Bit rate                                 : 24 b/s
  414. Count of elements                        : 886
  415. Stream size                              : 22.6 KiB (0%)
  416. Language                                 : Spanish
  417. Default                                  : No
  418. Forced                                   : No
  419.  
  420. Text #28
  421. ID                                       : 30
  422. Format                                   : UTF-8
  423. Codec ID                                 : S_TEXT/UTF8
  424. Codec ID/Info                            : UTF-8 Plain Text
  425. Duration                                 : 2 h 5 min
  426. Bit rate                                 : 25 b/s
  427. Count of elements                        : 871
  428. Stream size                              : 23.6 KiB (0%)
  429. Title                                    : European
  430. Language                                 : Spanish
  431. Default                                  : No
  432. Forced                                   : No
  433.  
  434. Text #29
  435. ID                                       : 31
  436. Format                                   : UTF-8
  437. Codec ID                                 : S_TEXT/UTF8
  438. Codec ID/Info                            : UTF-8 Plain Text
  439. Duration                                 : 2 h 5 min
  440. Bit rate                                 : 24 b/s
  441. Count of elements                        : 834
  442. Stream size                              : 22.3 KiB (0%)
  443. Language                                 : Swedish
  444. Default                                  : No
  445. Forced                                   : No
  446.  
  447. Text #30
  448. ID                                       : 32
  449. Format                                   : UTF-8
  450. Codec ID                                 : S_TEXT/UTF8
  451. Codec ID/Info                            : UTF-8 Plain Text
  452. Duration                                 : 2 h 5 min
  453. Bit rate                                 : 65 b/s
  454. Count of elements                        : 881
  455. Stream size                              : 60.3 KiB (0%)
  456. Language                                 : Thai
  457. Default                                  : No
  458. Forced                                   : No
  459.  
  460. Text #31
  461. ID                                       : 33
  462. Format                                   : UTF-8
  463. Codec ID                                 : S_TEXT/UTF8
  464. Codec ID/Info                            : UTF-8 Plain Text
  465. Duration                                 : 2 h 5 min
  466. Bit rate                                 : 25 b/s
  467. Count of elements                        : 845
  468. Stream size                              : 23.1 KiB (0%)
  469. Language                                 : Turkish
  470. Default                                  : No
  471. Forced                                   : No
  472.  
  473. Text #32
  474. ID                                       : 34
  475. Format                                   : UTF-8
  476. Codec ID                                 : S_TEXT/UTF8
  477. Codec ID/Info                            : UTF-8 Plain Text
  478. Duration                                 : 2 h 5 min
  479. Bit rate                                 : 41 b/s
  480. Count of elements                        : 857
  481. Stream size                              : 37.8 KiB (0%)
  482. Language                                 : Ukrainian
  483. Default                                  : No
  484. Forced                                   : No
  485.  
  486. Text #33
  487. ID                                       : 35
  488. Format                                   : UTF-8
  489. Codec ID                                 : S_TEXT/UTF8
  490. Codec ID/Info                            : UTF-8 Plain Text
  491. Duration                                 : 2 h 5 min
  492. Bit rate                                 : 36 b/s
  493. Count of elements                        : 901
  494. Stream size                              : 33.9 KiB (0%)
  495. Language                                 : Vietnamese
  496. Default                                  : No
  497. Forced                                   : No
  498.  
  499.  
Advertisement
Advertisement
Advertisement
RAW Paste Data Copied
Advertisement