SHARE
TWEET

Mary.and.Max.2009.1080p.BluRay.REMUX.AVC.DTS-HD.MA.5.1-EPSiLON

a guest May 20th, 2019 34 Never
Not a member of Pastebin yet? Sign Up, it unlocks many cool features!
  1. General
  2. Unique ID                                : 224277057060573248470350819711254880582 (0xA8BA30A40CBB51F448F8895227256146)
  3. Complete name                            : Mary.and.Max.2009.1080p.BluRay.REMUX.AVC.DTS-HD.MA.5.1-EPSiLON-Obfuscated.mkv
  4. Format                                   : Matroska
  5. Format version                           : Version 4
  6. File size                                : 19.4 GiB
  7. Duration                                 : 1 h 32 min
  8. Overall bit rate mode                    : Variable
  9. Overall bit rate                         : 30.1 Mb/s
  10. Encoded date                             : UTC 2017-03-18 14:37:34
  11. Writing application                      : mkvmerge v9.6.0 ('Slave To Your Mind') 64bit
  12. Writing library                          : libebml v1.3.4 + libmatroska v1.4.5
  13.  
  14. Video
  15. ID                                       : 1
  16. Format                                   : AVC
  17. Format/Info                              : Advanced Video Codec
  18. Format profile                           : High@L4.1
  19. Format settings                          : CABAC / 4 Ref Frames
  20. Format settings, CABAC                   : Yes
  21. Format settings, Reference frames        : 4 frames
  22. Codec ID                                 : V_MPEG4/ISO/AVC
  23. Duration                                 : 1 h 32 min
  24. Bit rate mode                            : Variable
  25. Bit rate                                 : 26.0 Mb/s
  26. Maximum bit rate                         : 37.0 Mb/s
  27. Width                                    : 1 920 pixels
  28. Height                                   : 1 080 pixels
  29. Display aspect ratio                     : 16:9
  30. Frame rate mode                          : Constant
  31. Frame rate                               : 23.976 (24000/1001) FPS
  32. Standard                                 : NTSC
  33. Color space                              : YUV
  34. Chroma subsampling                       : 4:2:0
  35. Bit depth                                : 8 bits
  36. Scan type                                : Progressive
  37. Bits/(Pixel*Frame)                       : 0.524
  38. Stream size                              : 16.8 GiB (87%)
  39. Title                                    : MPEG-4 AVC Video / 26025 kbps / 1080p / 23.976 fps / 16:9 / High Profile 4.1
  40. Language                                 : English
  41. Default                                  : Yes
  42. Forced                                   : No
  43. Color range                              : Limited
  44. Color primaries                          : BT.709
  45. Transfer characteristics                 : BT.709
  46. Matrix coefficients                      : BT.709
  47.  
  48. Audio #1
  49. ID                                       : 2
  50. Format                                   : DTS XLL
  51. Format/Info                              : Digital Theater Systems
  52. Commercial name                          : DTS-HD Master Audio
  53. Codec ID                                 : A_DTS
  54. Duration                                 : 1 h 32 min
  55. Bit rate mode                            : Variable
  56. Bit rate                                 : 3 430 kb/s
  57. Channel(s)                               : 6 channels
  58. Channel layout                           : C L R Ls Rs LFE
  59. Sampling rate                            : 48.0 kHz
  60. Frame rate                               : 93.750 FPS (512 SPF)
  61. Bit depth                                : 24 bits
  62. Compression mode                         : Lossless
  63. Stream size                              : 2.21 GiB (11%)
  64. Title                                    : DTS-HD Master Audio / 5.1 / 48 kHz / 3426 kbps / 24-bit
  65. Language                                 : English
  66. Default                                  : Yes
  67. Forced                                   : No
  68.  
  69. Audio #2
  70. ID                                       : 3
  71. Format                                   : FLAC
  72. Format/Info                              : Free Lossless Audio Codec
  73. Codec ID                                 : A_FLAC
  74. Duration                                 : 1 h 32 min
  75. Bit rate mode                            : Variable
  76. Bit rate                                 : 508 kb/s
  77. Channel(s)                               : 2 channels
  78. Channel layout                           : L R
  79. Sampling rate                            : 48.0 kHz
  80. Frame rate                               : 11.719 FPS (4096 SPF)
  81. Bit depth                                : 16 bits
  82. Compression mode                         : Lossless
  83. Stream size                              : 335 MiB (2%)
  84. Title                                    : Commentary by writer/director Adam Elliot / FLAC / 508 kbps / 2.0 / 48 kHz / 16-bit
  85. Writing library                          : libFLAC 1.2.1 (UTC 2007-09-17)
  86. Language                                 : English
  87. Default                                  : No
  88. Forced                                   : No
  89.  
  90. Text #1
  91. ID                                       : 4
  92. Format                                   : PGS
  93. Codec ID                                 : S_HDMV/PGS
  94. Codec ID/Info                            : Picture based subtitle format used on BDs/HD-DVDs
  95. Duration                                 : 1 h 31 min
  96. Bit rate                                 : 43.2 kb/s
  97. Count of elements                        : 2852
  98. Stream size                              : 28.3 MiB (0%)
  99. Title                                    : SDH
  100. Language                                 : English
  101. Default                                  : No
  102. Forced                                   : No
  103.  
  104. Text #2
  105. ID                                       : 5
  106. Format                                   : PGS
  107. Codec ID                                 : S_HDMV/PGS
  108. Codec ID/Info                            : Picture based subtitle format used on BDs/HD-DVDs
  109. Duration                                 : 1 h 28 min
  110. Bit rate                                 : 41.7 kb/s
  111. Count of elements                        : 2240
  112. Stream size                              : 26.4 MiB (0%)
  113. Language                                 : Spanish
  114. Default                                  : No
  115. Forced                                   : No
  116.  
  117. Menu
  118. 00:00:00.000                             : en:Welcome to Mount Waverley
  119. 00:02:42.579                             : en:The Family Dinkle
  120. 00:08:38.017                             : en:Welcome to New York
  121. 00:14:09.098                             : en:A Little About Me
  122. 00:19:30.127                             : en:Max's Jobs
  123. 00:25:59.183                             : en:Rubbish
  124. 00:31:50.700                             : en:Honesty
  125. 00:38:14.209                             : en:What Is Love?
  126. 00:44:39.385                             : en:Numbers Up
  127. 00:49:58.662                             : en:Aspies
  128. 00:56:08.657                             : en:Even Better Friends
  129. 01:01:24.055                             : en:Confidence
  130. 01:07:44.310                             : en:List of Emotions
  131. 01:12:41.691                             : en:Out of Ink
  132. 01:18:46.764                             : en:Our Warts
  133. 01:25:03.974                             : en:Together At Last
  134. 01:29:14.766                             : en:End Credits
RAW Paste Data
We use cookies for various purposes including analytics. By continuing to use Pastebin, you agree to our use of cookies as described in the Cookies Policy. OK, I Understand
 
Top