GrabHD

Untitled

Feb 21st, 2020
103
Never
Not a member of Pastebin yet? Sign Up, it unlocks many cool features!
  1. General
  2. Unique ID : 164236479058594936186324244300665536306 (0x7B8ECB98A5C90FB281B79668B3453F32)
  3. Complete name : C:KINOCharlie's.Angels.2019.WEBRip.2160p.SDR.by Silverok.mkv
  4. Format : Matroska
  5. Format version : Version 4
  6. File size : 25.2 GiB
  7. Duration : 1 h 58 min
  8. Overall bit rate : 30.5 Mb/s
  9. Movie name : Charlie's.Angels.2019.WEBRip.2160p.SDR.by Silverok
  10. Encoded date : UTC 2020-02-21 18:26:16
  11. Writing application : mkvmerge v43.0.0 ('The Quartermaster') 64-bit
  12. Writing library : libebml v1.3.10 + libmatroska v1.5.2
  13. Cover : Yes
  14. Attachments : cover.png
  15.  
  16. Video
  17. ID : 1
  18. Format : HEVC
  19. Format/Info : High Efficiency Video Coding
  20. Format profile : Main 10@L5.1@High
  21. Codec ID : V_MPEGH/ISO/HEVC
  22. Duration : 1 h 58 min
  23. Bit rate : 29.2 Mb/s
  24. Width : 3 840 pixels
  25. Height : 1 600 pixels
  26. Display aspect ratio : 2.40:1
  27. Frame rate mode : Constant
  28. Frame rate : 23.976 (24000/1001) FPS
  29. Color space : YUV
  30. Chroma subsampling : 4:2:0
  31. Bit depth : 10 bits
  32. Bits/(Pixel*Frame) : 0.198
  33. Stream size : 24.2 GiB (96%)
  34. Title : WEBRip.2160p.SDR.by Silverok
  35. Writing library : x265 3.2+38-fdbd4e4a2aff:[Windows][GCC 9.2.1][64 bit] 10bit
  36. Encoding settings : cpuid=1111039 / frame-threads=4 / numa-pools=24 / wpp / no-pmode / no-pme / no-psnr / no-ssim / log-level=2 / input-csp=1 / input-res=3840x1600 / interlace=0 / total-frames=170444 / level-idc=51 / high-tier=1 / uhd-bd=0 / ref=5 / no-allow-non-conformance / repeat-headers / annexb / aud / hrd / info / hash=0 / no-temporal-layers / open-gop / min-keyint=23 / keyint=250 / gop-lookahead=0 / bframes=8 / b-adapt=2 / b-pyramid / bframe-bias=0 / rc-lookahead=40 / lookahead-slices=4 / scenecut=40 / hist-scenecut=0 / radl=0 / no-splice / no-intra-refresh / ctu=64 / min-cu-size=8 / no-rect / no-amp / max-tu-size=32 / tu-inter-depth=4 / tu-intra-depth=4 / limit-tu=4 / rdoq-level=2 / dynamic-rd=0.00 / no-ssim-rd / signhide / no-tskip / nr-intra=0 / nr-inter=0 / no-constrained-intra / strong-intra-smoothing / max-merge=4 / limit-refs=3 / limit-modes / me=3 / subme=5 / merange=57 / temporal-mvp / no-frame-dup / no-hme / weightp / weightb / no-analyze-src-pics / deblock=-3:-3 / no-sao / no-sao-non-deblock / rd=4 / selective-sao=0 / no-early-skip / rskip / no-fast-intra / no-tskip-fast / no-cu-lossless / b-intra / no-splitrd-skip / rdpenalty=0 / psy-rd=2.00 / psy-rdoq=4.00 / no-rd-refine / no-lossless / cbqpoffs=0 / crqpoffs=0 / rc=crf / crf=19.0 / qcomp=0.60 / qpstep=4 / stats-write=0 / stats-read=0 / vbv-maxrate=160000 / vbv-bufsize=160000 / vbv-init=0.9 / crf-max=0.0 / crf-min=0.0 / ipratio=1.30 / pbratio=1.20 / aq-mode=1 / aq-strength=0.80 / no-cutree / zone-count=0 / no-strict-cbr / qg-size=32 / no-rc-grain / qpmax=69 / qpmin=0 / no-const-vbv / sar=1 / overscan=0 / videoformat=5 / range=0 / colorprim=1 / transfer=1 / colormatrix=1 / chromaloc=0 / display-window=0 / cll=0,0 / min-luma=0 / max-luma=1023 / log2-max-poc-lsb=8 / vui-timing-info / vui-hrd-info / slices=1 / no-opt-qp-pps / no-opt-ref-list-length-pps / no-multi-pass-opt-rps / scenecut-bias=0.05 / hist-threshold=0.01 / no-opt-cu-delta-qp / no-aq-motion / no-hdr10 / no-hdr10-opt / no-dhdr10-opt / no-idr-recovery-sei / analysis-reuse-level=0 / analysis-save-reuse-level=0 / analysis-load-reuse-level=0 / scale-factor=0 / refine-intra=0 / refine-inter=0 / refine-mv=1 / refine-ctu-distortion=0 / no-limit-sao / ctu-info=0 / no-lowpass-dct / refine-analysis-type=0 / copy-pic=1 / max-ausize-factor=1.0 / no-dynamic-refine / no-single-sei / no-hevc-aq / no-svt / no-field / qp-adaptation-range=1.00 / no-scenecut-aware-qpconformance-window-offsets / right=0 / bottom=0
  37. Default : Yes
  38. Forced : No
  39. Color range : Limited
  40. Color primaries : BT.709
  41. Transfer characteristics : BT.709
  42. Matrix coefficients : BT.709
  43.  
  44. Audio #1
  45. ID : 2
  46. Format : AC-3
  47. Format/Info : Audio Coding 3
  48. Commercial name : Dolby Digital
  49. Codec ID : A_AC3
  50. Duration : 1 h 58 min
  51. Bit rate mode : Constant
  52. Bit rate : 384 kb/s
  53. Channel(s) : 6 channels
  54. Channel layout : L R C LFE Ls Rs
  55. Sampling rate : 48.0 kHz
  56. Frame rate : 31.250 FPS (1536 SPF)
  57. Compression mode : Lossy
  58. Stream size : 325 MiB (1%)
  59. Title : Дублированный, iTunes
  60. Language : Russian
  61. Service kind : Complete Main
  62. Default : Yes
  63. Forced : No
  64.  
  65. Audio #2
  66. ID : 3
  67. Format : AC-3
  68. Format/Info : Audio Coding 3
  69. Commercial name : Dolby Digital
  70. Codec ID : A_AC3
  71. Duration : 1 h 58 min
  72. Bit rate mode : Constant
  73. Bit rate : 192 kb/s
  74. Channel(s) : 2 channels
  75. Channel layout : L R
  76. Sampling rate : 44.1 kHz
  77. Frame rate : 28.711 FPS (1536 SPF)
  78. Compression mode : Lossy
  79. Stream size : 163 MiB (1%)
  80. Title : Дублированный, iTunes
  81. Language : Ukrainian
  82. Service kind : Complete Main
  83. Default : No
  84. Forced : No
  85.  
  86. Audio #3
  87. ID : 4
  88. Format : E-AC-3
  89. Format/Info : Enhanced AC-3
  90. Commercial name : Dolby Digital Plus
  91. Codec ID : A_EAC3
  92. Duration : 1 h 58 min
  93. Bit rate mode : Constant
  94. Bit rate : 640 kb/s
  95. Channel(s) : 6 channels
  96. Channel layout : L R C LFE Ls Rs
  97. Sampling rate : 48.0 kHz
  98. Frame rate : 31.250 FPS (1536 SPF)
  99. Compression mode : Lossy
  100. Stream size : 542 MiB (2%)
  101. Language : English
  102. Service kind : Complete Main
  103. Default : No
  104. Forced : No
  105.  
  106. Text #1
  107. ID : 5
  108. Format : UTF-8
  109. Codec ID : S_TEXT/UTF8
  110. Codec ID/Info : UTF-8 Plain Text
  111. Duration : 1 h 46 min
  112. Bit rate : 1 b/s
  113. Count of elements : 29
  114. Stream size : 909 Bytes (0%)
  115. Title : Forced
  116. Language : Russian
  117. Default : Yes
  118. Forced : No
  119.  
  120. Text #2
  121. ID : 6
  122. Format : UTF-8
  123. Codec ID : S_TEXT/UTF8
  124. Codec ID/Info : UTF-8 Plain Text
  125. Duration : 1 h 52 min
  126. Bit rate : 88 b/s
  127. Count of elements : 1612
  128. Stream size : 73.2 KiB (0%)
  129. Title : Full
  130. Language : Russian
  131. Default : No
  132. Forced : No
  133.  
  134. Text #3
  135. ID : 7
  136. Format : UTF-8
  137. Codec ID : S_TEXT/UTF8
  138. Codec ID/Info : UTF-8 Plain Text
  139. Duration : 19 min 32 s
  140. Bit rate : 4 b/s
  141. Count of elements : 11
  142. Stream size : 587 Bytes (0%)
  143. Title : Forced
  144. Language : Ukrainian
  145. Default : No
  146. Forced : No
  147.  
  148. Text #4
  149. ID : 8
  150. Format : UTF-8
  151. Codec ID : S_TEXT/UTF8
  152. Codec ID/Info : UTF-8 Plain Text
  153. Duration : 1 h 52 min
  154. Bit rate : 98 b/s
  155. Count of elements : 1614
  156. Stream size : 80.8 KiB (0%)
  157. Title : Full
  158. Language : Ukrainian
  159. Default : No
  160. Forced : No
  161.  
  162. Text #5
  163. ID : 9
  164. Format : UTF-8
  165. Codec ID : S_TEXT/UTF8
  166. Codec ID/Info : UTF-8 Plain Text
  167. Duration : 1 h 55 min
  168. Bit rate : 68 b/s
  169. Count of elements : 1942
  170. Stream size : 57.9 KiB (0%)
  171. Title : Full
  172. Language : English
  173. Default : No
  174. Forced : No
  175.  
  176. Text #6
  177. ID : 10
  178. Format : UTF-8
  179. Codec ID : S_TEXT/UTF8
  180. Codec ID/Info : UTF-8 Plain Text
  181. Duration : 1 h 55 min
  182. Bit rate : 73 b/s
  183. Count of elements : 2256
  184. Stream size : 62.4 KiB (0%)
  185. Title : SDH
  186. Language : English
  187. Default : No
  188. Forced : No
  189.  
  190. Menu
  191. 00:00:00.000 : en:Studio Logos
  192. 00:00:36.000 : en:Women deserve all the same opportunities
  193. 00:06:32.000 : en:A meeting with Elena's boss
  194. 00:10:26.000 : en:Bosley's retirement
  195. 00:13:56.000 : en:Power demonstration
  196. 00:16:43.000 : en:A new assignment
  197. 00:26:22.000 : en:Regrouping
  198. 00:31:51.000 : en:Gathering intel
  199. 00:43:54.000 : en:A plan to retrieve Calisto
  200. 00:51:22.000 : en:Preparing for the mission
  201. 00:54:57.000 : en:Arriving in Instanbul
  202. 01:01:17.000 : en:A day at the races
  203. 01:08:36.000 : en:A meeting with the buyer
  204. 01:20:13.000 : en:Something isn't right
  205. 01:30:46.000 : en:Crashing a party
  206. 01:42:20.000 : en:Send the love
  207. 01:48:31.000 : en:End Credits
RAW Paste Data