Guest User

Untitled

a guest
Jan 8th, 2020
102
Never
Not a member of Pastebin yet? Sign Up, it unlocks many cool features!
  1. Общее
  2. Уникальный идентификатор : 137498951143038016978279760758624341220 (0x677155B10CD902FCE31BD72423EDCCE4)
  3. Полное имя : R:Monsters vs Aliens (2009) BDRip 1080p [HEVC].mkv
  4. Формат : Matroska
  5. Версия формата : Version 4 / Version 2
  6. Размер файла : 4,25 Гбайт
  7. Продолжительность : 1 ч. 34 м.
  8. Общий поток : 6450 Кбит/сек
  9. Название фильма : Monsters vs Aliens (2009)
  10. Дата кодирования : UTC 2020-01-07 12:19:19
  11. Программа кодирования : mkvmerge v40.0.0 ('Old Town Road + Pony') 64-bit
  12. Библиотека кодирования : libebml v1.3.9 + libmatroska v1.5.2
  13. Обложка : Yes
  14. Attachments : cover.jpg
  15.  
  16. Видео
  17. Идентификатор : 1
  18. Формат : HEVC
  19. Формат/Информация : High Efficiency Video Coding
  20. Профиль формата : Main 10@L4.1@High
  21. Идентификатор кодека : V_MPEGH/ISO/HEVC
  22. Продолжительность : 1 ч. 34 м.
  23. Битрейт : 4526 Кбит/сек
  24. Ширина : 1920 пикселей
  25. Высота : 818 пикселей
  26. Соотношение сторон : 2,35:1
  27. Режим частоты кадров : Постоянный
  28. Частота кадров : 23,976 (23976/1000) кадра/сек
  29. Частота кадров в оригинале : 23,976 (24000/1001) кадра/сек
  30. Цветовое пространство : YUV
  31. Субдискретизация насыщенности : 4:2:0
  32. Битовая глубина : 10 бит
  33. Бит/(Пиксели*Кадры) : 0.120
  34. Размер потока : 2,98 Гбайт (70%)
  35. Библиотека кодирования : x265 3.2.1+1-b5c86a64bbbe:[Windows][MSVC 1923][64 bit] 10bit
  36. Настройки программы : cpuid=1111039 / frame-threads=3 / numa-pools=12 / wpp / no-pmode / no-pme / no-psnr / no-ssim / log-level=2 / input-csp=1 / input-res=1920x818 / interlace=0 / total-frames=122464 / level-idc=41 / high-tier=1 / uhd-bd=0 / ref=5 / no-allow-non-conformance / no-repeat-headers / annexb / no-aud / no-hrd / info / hash=0 / no-temporal-layers / open-gop / min-keyint=23 / keyint=240 / gop-lookahead=0 / bframes=8 / b-adapt=2 / b-pyramid / bframe-bias=0 / rc-lookahead=60 / lookahead-slices=4 / scenecut=40 / radl=0 / no-splice / no-intra-refresh / ctu=32 / min-cu-size=8 / rect / amp / max-tu-size=32 / tu-inter-depth=4 / tu-intra-depth=4 / limit-tu=1 / rdoq-level=2 / dynamic-rd=0.00 / no-ssim-rd / signhide / no-tskip / nr-intra=0 / nr-inter=0 / no-constrained-intra / no-strong-intra-smoothing / max-merge=4 / limit-refs=2 / limit-modes / me=3 / subme=7 / merange=57 / temporal-mvp / no-hme / weightp / weightb / no-analyze-src-pics / deblock=-3:-3 / no-sao / no-sao-non-deblock / rd=6 / selective-sao=0 / no-early-skip / no-rskip / no-fast-intra / no-tskip-fast / no-cu-lossless / no-b-intra / no-splitrd-skip / rdpenalty=0 / psy-rd=2.00 / psy-rdoq=1.00 / no-rd-refine / no-lossless / cbqpoffs=0 / crqpoffs=0 / rc=crf / crf=20.0 / qcomp=0.65 / qpstep=4 / stats-write=0 / stats-read=0 / vbv-maxrate=50000 / vbv-bufsize=50000 / vbv-init=0.9 / crf-max=0.0 / crf-min=0.0 / ipratio=1.40 / pbratio=1.30 / aq-mode=1 / aq-strength=1.00 / no-cutree / zone-count=0 / no-strict-cbr / qg-size=32 / no-rc-grain / qpmax=69 / qpmin=0 / no-const-vbv / sar=1 / overscan=0 / videoformat=5 / range=0 / colorprim=1 / transfer=1 / colormatrix=1 / chromaloc=0 / display-window=0 / cll=0,0 / min-luma=0 / max-luma=1023 / log2-max-poc-lsb=8 / vui-timing-info / vui-hrd-info / slices=1 / no-opt-qp-pps / no-opt-ref-list-length-pps / no-multi-pass-opt-rps / scenecut-bias=0.05 / no-opt-cu-delta-qp / no-aq-motion / no-hdr / no-hdr-opt / no-dhdr10-opt / no-idr-recovery-sei / analysis-reuse-level=5 / scale-factor=0 / refine-intra=0 / refine-inter=0 / refine-mv=1 / refine-ctu-distortion=0 / no-limit-sao / ctu-info=0 / no-lowpass-dct / refine-analysis-type=0 / copy-pic=1 / max-ausize-factor=1.0 / no-dynamic-refine / no-single-sei / no-hevc-aq / no-svt / no-field / qp-adaptation-range=1.00
  37. Default : Да
  38. Forced : Нет
  39. Цветовой диапазон : Limited
  40. Основные цвета : BT.709
  41. Характеристики трансфера : BT.709
  42. Коэффициенты матрицы : BT.709
  43.  
  44. Аудио #1
  45. Идентификатор : 2
  46. Формат : AC-3
  47. Формат/Информация : Audio Coding 3
  48. Идентификатор кодека : A_AC3
  49. Продолжительность : 1 ч. 34 м.
  50. Вид битрейта : Постоянный
  51. Битрейт : 640 Кбит/сек
  52. Каналы : 6 каналов
  53. Расположение каналов : Front: L C R, Side: L R, LFE
  54. Частота : 48,0 КГц
  55. Частота кадров : 31,250 кадров/сек (1536 SPF)
  56. Битовая глубина : 16 бит
  57. Метод сжатия : С потерями
  58. Размер потока : 432 Мбайт (10%)
  59. Заголовок : Дубляж [BD CEE]
  60. Язык : Russian
  61. ServiceKind/Strin : Complete Main
  62. Default : Да
  63. Forced : Нет
  64.  
  65. Аудио #2
  66. Идентификатор : 3
  67. Формат : AC-3
  68. Формат/Информация : Audio Coding 3
  69. Идентификатор кодека : A_AC3
  70. Продолжительность : 1 ч. 34 м.
  71. Вид битрейта : Постоянный
  72. Битрейт : 640 Кбит/сек
  73. Каналы : 6 каналов
  74. Расположение каналов : Front: L C R, Side: L R, LFE
  75. Частота : 48,0 КГц
  76. Частота кадров : 31,250 кадров/сек (1536 SPF)
  77. Битовая глубина : 16 бит
  78. Метод сжатия : С потерями
  79. Размер потока : 432 Мбайт (10%)
  80. Заголовок : Дубляж [BD CEE]
  81. Язык : Ukrainian
  82. ServiceKind/Strin : Complete Main
  83. Default : Нет
  84. Forced : Нет
  85.  
  86. Аудио #3
  87. Идентификатор : 4
  88. Формат : AC-3
  89. Формат/Информация : Audio Coding 3
  90. Идентификатор кодека : A_AC3
  91. Продолжительность : 1 ч. 34 м.
  92. Вид битрейта : Постоянный
  93. Битрейт : 640 Кбит/сек
  94. Каналы : 6 каналов
  95. Расположение каналов : Front: L C R, Side: L R, LFE
  96. Частота : 48,0 КГц
  97. Частота кадров : 31,250 кадров/сек (1536 SPF)
  98. Битовая глубина : 16 бит
  99. Метод сжатия : С потерями
  100. Размер потока : 432 Мбайт (10%)
  101. Заголовок : Оriginal [BD CEE]
  102. Язык : English
  103. ServiceKind/Strin : Complete Main
  104. Default : Нет
  105. Forced : Нет
  106.  
  107. Текст #1
  108. Идентификатор : 5
  109. Формат : UTF-8
  110. Идентификатор кодека : S_TEXT/UTF8
  111. Идентификатор кодека/Информация : UTF-8 Plain Text
  112. Продолжительность : 1 ч. 26 м.
  113. Битрейт : 91 бит/сек
  114. ElementCount : 958
  115. Размер потока : 57,6 Кбайт (0%)
  116. Заголовок : Full [BD CEE]
  117. Язык : Russian
  118. Default : Нет
  119. Forced : Нет
  120.  
  121. Текст #2
  122. Идентификатор : 6
  123. Формат : UTF-8
  124. Идентификатор кодека : S_TEXT/UTF8
  125. Идентификатор кодека/Информация : UTF-8 Plain Text
  126. Продолжительность : 1 ч. 26 м.
  127. Битрейт : 89 бит/сек
  128. ElementCount : 956
  129. Размер потока : 56,2 Кбайт (0%)
  130. Заголовок : Full [BD CEE]
  131. Язык : Ukrainian
  132. Default : Нет
  133. Forced : Нет
  134.  
  135. Текст #3
  136. Идентификатор : 7
  137. Формат : UTF-8
  138. Идентификатор кодека : S_TEXT/UTF8
  139. Идентификатор кодека/Информация : UTF-8 Plain Text
  140. Продолжительность : 1 ч. 26 м.
  141. Битрейт : 55 бит/сек
  142. ElementCount : 944
  143. Размер потока : 35,0 Кбайт (0%)
  144. Заголовок : Full [BD CEE]
  145. Язык : English
  146. Default : Нет
  147. Forced : Нет
  148.  
  149. Меню
  150. 00:00:00.000 : :Chapter 01
  151. 00:05:08.933 : :Chapter 02
  152. 00:07:39.500 : :Chapter 03
  153. 00:11:01.994 : :Chapter 04
  154. 00:17:36.096 : :Chapter 05
  155. 00:20:36.902 : :Chapter 06
  156. 00:24:10.407 : :Chapter 07
  157. 00:28:20.740 : :Chapter 08
  158. 00:32:41.960 : :Chapter 09
  159. 00:35:10.483 : :Chapter 10
  160. 00:38:59.420 : :Chapter 11
  161. 00:41:51.383 : :Chapter 12
  162. 00:46:47.095 : :Chapter 13
  163. 00:50:10.257 : :Chapter 14
  164. 00:55:48.053 : :Chapter 15
  165. 00:59:38.157 : :Chapter 16
  166. 01:03:24.133 : :Chapter 17
  167. 01:06:38.244 : :Chapter 18
  168. 01:08:38.280 : :Chapter 19
  169. 01:14:00.352 : :Chapter 20
  170. 01:16:55.569 : :Chapter 21
  171. 01:18:10.227 : :Chapter 22
  172. 01:21:38.393 : :Chapter 23
  173. 01:25:10.104 : :Chapter 24
RAW Paste Data