SHARE
TWEET

Escape Plan: The Extractors BluRay 720p

dirtyharrys Jul 9th, 2019 67 Never
Not a member of Pastebin yet? Sign Up, it unlocks many cool features!
  1. General
  2. Unique ID                   : 184634733818182247095126535746618793251 (0x8AE75B3414B13496A4FE77B745161D23)
  3. Complete name               : E:\QlJSRXNjYXBlUGxhblRoZUV4dHJhY3RvcnM.mkv
  4. Format                      : Matroska
  5. Format version              : Version 4
  6. File size                   : 1.35 GiB
  7. Duration                    : 1 h 27 min
  8. Overall bit rate            : 2 205 kb/s
  9. Movie name                  : Escape Plan: The Extractors BR-RIP / Escape Plan: The Extractors BR-RIP
  10. Encoded date                : UTC 2019-07-09 07:51:13
  11. Writing application         : mkvmerge v30.1.0 ('Forever And More') 32-bit
  12. Writing library             : libebml v1.3.6 + libmatroska v1.4.9
  13. Copyright                   : Movies HDs 2019
  14. ARTIST                      : HarshLearner
  15.  
  16. Video
  17. ID                          : 1
  18. Format                      : AVC
  19. Format/Info                 : Advanced Video Codec
  20. Format profile              : High@L4.1
  21. Format settings             : CABAC / 4 Ref Frames
  22. Format settings, CABAC      : Yes
  23. Format settings, ReFrames   : 4 frames
  24. Codec ID                    : V_MPEG4/ISO/AVC
  25. Duration                    : 1 h 27 min
  26. Bit rate                    : 1 500 kb/s
  27. Width                       : 1 280 pixels
  28. Height                      : 536 pixels
  29. Display aspect ratio        : 2.40:1
  30. Frame rate mode             : Constant
  31. Frame rate                  : 23.976 (24000/1001) FPS
  32. Original frame rate         : 23.976 (23976/1000) FPS
  33. Color space                 : YUV
  34. Chroma subsampling          : 4:2:0
  35. Bit depth                   : 8 bits
  36. Scan type                   : Progressive
  37. Bits/(Pixel*Frame)          : 0.091
  38. Stream size                 : 939 MiB (68%)
  39. Title                       : Escape Plan: The Extractors
  40. Writing library             : x264 core 152 r2851M ba24899
  41. Default                     : Yes
  42. Forced                      : No
  43.  
  44. Audio #1
  45. ID                          : 2
  46. Format                      : AC-3
  47. Format/Info                 : Audio Coding 3
  48. Commercial name             : Dolby Digital
  49. Codec ID                    : A_AC3
  50. Duration                    : 1 h 27 min
  51. Bit rate mode               : Constant
  52. Bit rate                    : 448 kb/s
  53. Channel(s)                  : 6 channels
  54. Channel layout              : L R C LFE Ls Rs
  55. Sampling rate               : 48.0 kHz
  56. Frame rate                  : 31.250 FPS (1536 SPF)
  57. Bit depth                   : 16 bits
  58. Compression mode            : Lossy
  59. Stream size                 : 281 MiB (20%)
  60. Language                    : English
  61. Service kind                : Complete Main
  62. Default                     : No
  63. Forced                      : No
  64.  
  65. Audio #2
  66. ID                          : 3
  67. Format                      : AC-3
  68. Format/Info                 : Audio Coding 3
  69. Commercial name             : Dolby Digital
  70. Codec ID                    : A_AC3
  71. Duration                    : 1 h 27 min
  72. Bit rate mode               : Constant
  73. Bit rate                    : 256 kb/s
  74. Channel(s)                  : 2 channels
  75. Channel layout              : L R
  76. Sampling rate               : 48.0 kHz
  77. Frame rate                  : 31.250 FPS (1536 SPF)
  78. Bit depth                   : 16 bits
  79. Compression mode            : Lossy
  80. Stream size                 : 160 MiB (12%)
  81. Language                    : Spanish
  82. Service kind                : Complete Main
  83. Default                     : Yes
  84. Forced                      : Yes
  85.  
  86. Text #1
  87. ID                          : 4
  88. Format                      : UTF-8
  89. Codec ID                    : S_TEXT/UTF8
  90. Codec ID/Info               : UTF-8 Plain Text
  91. Duration                    : 1 h 20 min
  92. Bit rate                    : 38 b/s
  93. Count of elements           : 731
  94. Stream size                 : 22.6 KiB (0%)
  95. Language                    : English
  96. Default                     : No
  97. Forced                      : No
  98.  
  99. Text #2
  100. ID                          : 5
  101. Format                      : UTF-8
  102. Codec ID                    : S_TEXT/UTF8
  103. Codec ID/Info               : UTF-8 Plain Text
  104. Duration                    : 1 h 15 min
  105. Bit rate                    : 32 b/s
  106. Count of elements           : 637
  107. Stream size                 : 18.0 KiB (0%)
  108. Language                    : Spanish
  109. Default                     : Yes
  110. Forced                      : Yes
  111.  
  112. Text #3
  113. ID                          : 6
  114. Format                      : UTF-8
  115. Codec ID                    : S_TEXT/UTF8
  116. Codec ID/Info               : UTF-8 Plain Text
  117. Duration                    : 1 h 1 min
  118. Bit rate                    : 0 b/s
  119. Count of elements           : 12
  120. Stream size                 : 248 Bytes (0%)
  121. Language                    : Spanish
  122. Default                     : No
  123. Forced                      : No
  124.  
  125. Menu
  126. 00:00:00.000                : :Chapter 01
  127. 00:04:06.246                : :Chapter 02
  128. 00:07:29.324                : :Chapter 03
  129. 00:12:32.668                : :Chapter 04
  130. 00:19:10.316                : :Chapter 05
  131. 00:23:18.313                : :Chapter 06
  132. 00:25:24.398                : :Chapter 07
  133. 00:31:18.460                : :Chapter 08
  134. 00:37:05.640                : :Chapter 09
  135. 00:44:02.848                : :Chapter 10
  136. 00:47:28.304                : :Chapter 11
  137. 00:52:19.511                : :Chapter 12
  138. 00:56:14.287                : :Chapter 13
  139. 01:03:40.650                : :Chapter 14
  140. 01:09:24.869                : :Chapter 15
  141. 01:16:48.020                : :Chapter 16
RAW Paste Data
We use cookies for various purposes including analytics. By continuing to use Pastebin, you agree to our use of cookies as described in the Cookies Policy. OK, I Understand
 
Top