SHARE
TWEET

DBZ 40-49 MediaInfo

neochoa Sep 18th, 2018 134 Never
Not a member of Pastebin yet? Sign Up, it unlocks many cool features!
  1. General
  2. Unique ID                                : 155999073248855947503215669984967025764 (0x755C5422300D4BB412E917D191086464)
  3. Complete name                            : ...\[iKaos] Dragon Ball Z - 40-49 - Namek Saga - Quad Audio\Dragon Ball Z.S02E08.Surprise Attack!! The Elder's Target was the Scouters.DVD-iKaos.mkv
  4. Format                                   : Matroska
  5. Format version                           : Version 4
  6. File size                                : 709 MiB
  7. Duration                                 : 24 min 42 s
  8. Overall bit rate                         : 4 009 kb/s
  9. Movie name                               : Dragon Ball Z S02E08
  10. Encoded date                             : UTC 2018-09-18 04:01:52
  11. Writing application                      : mkvmerge v26.0.0 ('In The Game') 64-bit
  12. Writing library                          : libebml v1.3.6 + libmatroska v1.4.9
  13.  
  14. Video
  15. ID                                       : 1
  16. Format                                   : AVC
  17. Format/Info                              : Advanced Video Codec
  18. Format profile                           : High@L4.1
  19. Format settings                          : CABAC / 10 Ref Frames
  20. Format settings, CABAC                   : Yes
  21. Format settings, RefFrames               : 10 frames
  22. Codec ID                                 : V_MPEG4/ISO/AVC
  23. Duration                                 : 24 min 42 s
  24. Bit rate                                 : 2 898 kb/s
  25. Width                                    : 720 pixels
  26. Height                                   : 478 pixels
  27. Display aspect ratio                     : 4:3
  28. Frame rate mode                          : Constant
  29. Frame rate                               : 23.976 (23976/1000) FPS
  30. Color space                              : YUV
  31. Chroma subsampling                       : 4:2:0
  32. Bit depth                                : 8 bits
  33. Scan type                                : Progressive
  34. Bits/(Pixel*Frame)                       : 0.351
  35. Stream size                              : 512 MiB (72%)
  36. Writing library                          : x264 core 155 r2901 7d0ff22
  37. Encoding settings                        : cabac=1 / ref=10 / deblock=1:1:1 / analyse=0x3:0x113 / me=hex / subme=8 / psy=1 / psy_rd=0.40:0.00 / mixed_ref=1 / me_range=16 / chroma_me=1 / trellis=2 / 8x8dct=1 / cqm=0 / deadzone=21,11 / fast_pskip=1 / chroma_qp_offset=-2 / threads=12 / lookahead_threads=2 / sliced_threads=0 / nr=0 / decimate=1 / interlaced=0 / bluray_compat=0 / constrained_intra=0 / bframes=5 / b_pyramid=2 / b_adapt=1 / b_bias=0 / direct=3 / weightb=1 / open_gop=0 / weightp=2 / keyint=240 / keyint_min=24 / scenecut=40 / intra_refresh=0 / rc_lookahead=50 / rc=crf / mbtree=1 / crf=18.0 / qcomp=0.60 / qpmin=0 / qpmax=69 / qpstep=4 / vbv_maxrate=62500 / vbv_bufsize=78125 / crf_max=0.0 / nal_hrd=none / filler=0 / ip_ratio=1.40 / aq=1:0.60
  38. Default                                  : Yes
  39. Forced                                   : No
  40. Color range                              : Limited
  41. Color primaries                          : BT.601 NTSC
  42. Transfer characteristics                 : BT.709
  43. Matrix coefficients                      : BT.601
  44.  
  45. Audio #1
  46. ID                                       : 2
  47. Format                                   : AAC LC
  48. Format/Info                              : Advanced Audio Codec Low Complexity
  49. Codec ID                                 : A_AAC-2
  50. Duration                                 : 24 min 42 s
  51. Bit rate                                 : 96.0 kb/s
  52. Channel(s)                               : 1 channel
  53. Channel layout                           : C
  54. Sampling rate                            : 48.0 kHz
  55. Frame rate                               : 46.875 FPS (1024 SPF)
  56. Compression mode                         : Lossy
  57. Stream size                              : 16.7 MiB (2%)
  58. Title                                    : 1990 Mono Broadcast Audio
  59. Language                                 : Japanese
  60. Default                                  : Yes
  61. Forced                                   : No
  62.  
  63. Audio #2
  64. ID                                       : 3
  65. Format                                   : AC-3
  66. Format/Info                              : Audio Coding 3
  67. Commercial name                          : Dolby Digital
  68. Codec ID                                 : A_AC3
  69. Duration                                 : 24 min 42 s
  70. Bit rate mode                            : Constant
  71. Bit rate                                 : 384 kb/s
  72. Channel(s)                               : 6 channels
  73. Channel layout                           : L R C LFE Ls Rs
  74. Sampling rate                            : 48.0 kHz
  75. Frame rate                               : 31.250 FPS (1536 SPF)
  76. Bit depth                                : 16 bits
  77. Compression mode                         : Lossy
  78. Delay relative to video                  : 33 ms
  79. Stream size                              : 67.9 MiB (10%)
  80. Title                                    : 2007 5.1 Remastered FUNi Dub (Kikuchi Score)
  81. Language                                 : English
  82. Service kind                             : Complete Main
  83. Default                                  : No
  84. Forced                                   : No
  85.  
  86. Audio #3
  87. ID                                       : 4
  88. Format                                   : AAC LC
  89. Format/Info                              : Advanced Audio Codec Low Complexity
  90. Codec ID                                 : A_AAC-2
  91. Duration                                 : 24 min 12 s
  92. Bit rate                                 : 317 kb/s
  93. Channel(s)                               : 2 channels
  94. Channel layout                           : L R
  95. Sampling rate                            : 48.0 kHz
  96. Frame rate                               : 46.875 FPS (1024 SPF)
  97. Compression mode                         : Lossy
  98. Delay relative to video                  : 20 ms
  99. Stream size                              : 54.9 MiB (8%)
  100. Title                                    : 2005 2.0 UUE FUNi Dub (Johnson Score)
  101. Language                                 : English
  102. Default                                  : No
  103. Forced                                   : No
  104.  
  105. Audio #4
  106. ID                                       : 5
  107. Format                                   : AAC LC
  108. Format/Info                              : Advanced Audio Codec Low Complexity
  109. Codec ID                                 : A_AAC-2
  110. Duration                                 : 24 min 42 s
  111. Bit rate                                 : 317 kb/s
  112. Channel(s)                               : 2 channels
  113. Channel layout                           : L R
  114. Sampling rate                            : 48.0 kHz
  115. Frame rate                               : 46.875 FPS (1024 SPF)
  116. Compression mode                         : Lossy
  117. Stream size                              : 56.1 MiB (8%)
  118. Title                                    : 1997 2.0 Saban/Ocean Dub (edited)
  119. Language                                 : English
  120. Default                                  : No
  121. Forced                                   : No
  122.  
  123. Text
  124. ID                                       : 6
  125. Format                                   : ASS
  126. Codec ID                                 : S_TEXT/ASS
  127. Codec ID/Info                            : Advanced Sub Station Alpha
  128. Duration                                 : 24 min 27 s
  129. Bit rate                                 : 160 b/s
  130. Count of elements                        : 325
  131. Compression mode                         : Lossless
  132. Stream size                              : 28.8 KiB (0%)
  133. Title                                    : English
  134. Language                                 : English
  135. Default                                  : Yes
  136. Forced                                   : No
  137.  
  138. Menu
  139. 00:00:00.166                             : :Chapter 1
  140. 00:01:50.151                             : :Chapter 2
  141. 00:12:39.800                             : :Chapter 3
  142. 00:22:34.394                             : :Chapter 4
  143. 00:24:11.491                             : :Chapter 5
RAW Paste Data
We use cookies for various purposes including analytics. By continuing to use Pastebin, you agree to our use of cookies as described in the Cookies Policy. OK, I Understand
 
Top