SHARE
TWEET

Major.League.1989.BluRay.1080p.TrueHD.5.1.AVC.REMUX-FraMeSToR

a guest Jun 15th, 2019 19 Never
Not a member of Pastebin yet? Sign Up, it unlocks many cool features!
  1. General
  2. Unique ID                                : 213807586482391463242881085494140286541 (0xA0D9D7E3732D029D30EE9DF2CDE3364D)
  3. Complete name                            : Major.League.1989.BluRay.1080p.TrueHD.5.1.AVC.REMUX-FraMeSToR.mkv
  4. Format                                   : Matroska
  5. Format version                           : Version 4
  6. File size                                : 27.0 GiB
  7. Duration                                 : 1 h 46 min
  8. Overall bit rate mode                    : Variable
  9. Overall bit rate                         : 36.3 Mb/s
  10. Movie name                               : Major League (1989)
  11. Encoded date                             : UTC 2018-04-25 19:06:35
  12. Writing application                      : mkvmerge v22.0.0 ('At The End Of The World') 64-bit
  13. Writing library                          : libebml v1.3.5 + libmatroska v1.4.8
  14.  
  15. Video
  16. ID                                       : 1
  17. Format                                   : AVC
  18. Format/Info                              : Advanced Video Codec
  19. Format profile                           : High@L4.1
  20. Format settings                          : CABAC / 2 Ref Frames
  21. Format settings, CABAC                   : Yes
  22. Format settings, Reference frames        : 2 frames
  23. Codec ID                                 : V_MPEG4/ISO/AVC
  24. Duration                                 : 1 h 46 min
  25. Bit rate mode                            : Variable
  26. Bit rate                                 : 31.8 Mb/s
  27. Width                                    : 1 920 pixels
  28. Height                                   : 1 080 pixels
  29. Display aspect ratio                     : 16:9
  30. Frame rate mode                          : Constant
  31. Frame rate                               : 23.976 (24000/1001) FPS
  32. Color space                              : YUV
  33. Chroma subsampling                       : 4:2:0
  34. Bit depth                                : 8 bits
  35. Scan type                                : Progressive
  36. Bits/(Pixel*Frame)                       : 0.639
  37. Stream size                              : 23.7 GiB (88%)
  38. Default                                  : Yes
  39. Forced                                   : No
  40.  
  41. Audio #1
  42. ID                                       : 2
  43. Format                                   : MLP FBA
  44. Format/Info                              : Meridian Lossless Packing FBA
  45. Commercial name                          : Dolby TrueHD
  46. Codec ID                                 : A_TRUEHD
  47. Duration                                 : 1 h 46 min
  48. Bit rate mode                            : Variable
  49. Bit rate                                 : 3 411 kb/s
  50. Maximum bit rate                         : 4 752 kb/s
  51. Channel(s)                               : 6 channels
  52. Channel layout                           : L R C LFE Ls Rs
  53. Sampling rate                            : 48.0 kHz
  54. Frame rate                               : 1 200.000 FPS (40 SPF)
  55. Compression mode                         : Lossless
  56. Stream size                              : 2.54 GiB (9%)
  57. Title                                    : TrueHD 5.1
  58. Language                                 : English
  59. Default                                  : Yes
  60. Forced                                   : No
  61.  
  62. Audio #2
  63. ID                                       : 3
  64. Format                                   : AC-3
  65. Format/Info                              : Audio Coding 3
  66. Commercial name                          : Dolby Digital
  67. Codec ID                                 : A_AC3
  68. Duration                                 : 1 h 46 min
  69. Bit rate mode                            : Constant
  70. Bit rate                                 : 640 kb/s
  71. Channel(s)                               : 6 channels
  72. Channel layout                           : L R C LFE Ls Rs
  73. Sampling rate                            : 48.0 kHz
  74. Frame rate                               : 31.250 FPS (1536 SPF)
  75. Bit depth                                : 16 bits
  76. Compression mode                         : Lossy
  77. Stream size                              : 488 MiB (2%)
  78. Title                                    : AC-3 5.1
  79. Language                                 : English
  80. Service kind                             : Complete Main
  81. Default                                  : No
  82. Forced                                   : No
  83.  
  84. Audio #3
  85. ID                                       : 4
  86. Format                                   : AC-3
  87. Format/Info                              : Audio Coding 3
  88. Commercial name                          : Dolby Digital
  89. Codec ID                                 : A_AC3
  90. Duration                                 : 1 h 46 min
  91. Bit rate mode                            : Constant
  92. Bit rate                                 : 224 kb/s
  93. Channel(s)                               : 2 channels
  94. Channel layout                           : L R
  95. Sampling rate                            : 48.0 kHz
  96. Frame rate                               : 31.250 FPS (1536 SPF)
  97. Bit depth                                : 16 bits
  98. Compression mode                         : Lossy
  99. Stream size                              : 171 MiB (1%)
  100. Title                                    : Commentary by director David Ward and producer Chris Chesser
  101. Language                                 : English
  102. Service kind                             : Complete Main
  103. Default                                  : No
  104. Forced                                   : No
  105.  
  106. Text #1
  107. ID                                       : 5
  108. Format                                   : PGS
  109. Codec ID                                 : S_HDMV/PGS
  110. Codec ID/Info                            : Picture based subtitle format used on BDs/HD-DVDs
  111. Duration                                 : 1 h 37 min
  112. Bit rate                                 : 43.1 kb/s
  113. Count of elements                        : 2704
  114. Stream size                              : 30.1 MiB (0%)
  115. Title                                    : English
  116. Language                                 : English
  117. Default                                  : No
  118. Forced                                   : No
  119.  
  120. Text #2
  121. ID                                       : 6
  122. Format                                   : PGS
  123. Codec ID                                 : S_HDMV/PGS
  124. Codec ID/Info                            : Picture based subtitle format used on BDs/HD-DVDs
  125. Duration                                 : 1 h 44 min
  126. Bit rate                                 : 43.7 kb/s
  127. Count of elements                        : 2968
  128. Stream size                              : 32.7 MiB (0%)
  129. Title                                    : English (SDH)
  130. Language                                 : English
  131. Default                                  : No
  132. Forced                                   : No
  133.  
  134. Text #3
  135. ID                                       : 7
  136. Format                                   : PGS
  137. Codec ID                                 : S_HDMV/PGS
  138. Codec ID/Info                            : Picture based subtitle format used on BDs/HD-DVDs
  139. Duration                                 : 1 h 39 min
  140. Bit rate                                 : 39.5 kb/s
  141. Count of elements                        : 2782
  142. Stream size                              : 28.0 MiB (0%)
  143. Title                                    : French
  144. Language                                 : French
  145. Default                                  : No
  146. Forced                                   : No
  147.  
  148. Text #4
  149. ID                                       : 8
  150. Format                                   : PGS
  151. Codec ID                                 : S_HDMV/PGS
  152. Codec ID/Info                            : Picture based subtitle format used on BDs/HD-DVDs
  153. Duration                                 : 1 h 39 min
  154. Bit rate                                 : 39.0 kb/s
  155. Count of elements                        : 2774
  156. Stream size                              : 27.7 MiB (0%)
  157. Title                                    : Spanish (Latin American)
  158. Language                                 : Spanish
  159. Default                                  : No
  160. Forced                                   : No
  161.  
  162. Menu
  163. 00:00:00.000                             : en:Cleveland
  164. 00:03:26.498                             : en:The New Owner
  165. 00:06:32.267                             : en:Invitations to Camp
  166. 00:12:41.719                             : en:Spring Training
  167. 00:17:12.031                             : en:Red-Tagged
  168. 00:25:48.672                             : en:One More Year in the Sun
  169. 00:33:29.257                             : en:The Thrill of Defeat
  170. 00:42:08.025                             : en:The Indian Express
  171. 00:50:58.305                             : en:Gaining Control
  172. 00:56:07.739                             : en:The Tank
  173. 01:00:56.278                             : en:Last Hurrah
  174. 01:07:58.533                             : en:Something to Bring It All Together
  175. 01:14:29.256                             : en:Mrs. Roger Dorn
  176. 01:19:52.162                             : en:One-Game Playoff
  177. 01:27:51.099                             : en:Wild Thing
  178. 01:34:13.022                             : en:Jake Calls His Shot
  179. 01:40:39.533                             : en:End Credits
RAW Paste Data
We use cookies for various purposes including analytics. By continuing to use Pastebin, you agree to our use of cookies as described in the Cookies Policy. OK, I Understand
 
Top