Advertisement
DAKUBABU

Untitled

Jan 10th, 2022
74
0
Never
Not a member of Pastebin yet? Sign Up, it unlocks many cool features!
text 4.41 KB | None | 0 0
  1. General
  2. Unique ID : 111572964318951893909039837717777112928 (0x53F02BDA17EBBA5398554A1EB1F85F60)
  3. Complete name : F:\C85C11-2021-1080p-Hin-2.75GB.mkv
  4. Format : Matroska
  5. Format version : Version 4
  6. File size : 2.73 GiB
  7. Duration : 2 h 7 min
  8. Overall bit rate : 3 066 kb/s
  9. Movie name : BollyMovies.Info | Check (2021) 1080p WEB-DL x264 HE-AAC Hindi Dubbed 2.73GB
  10. Encoded date : UTC 2022-01-10 05:49:59
  11. Writing application : mkvmerge v47.0.0 ('Black Flag') 64-bit
  12. Writing library : libebml v1.3.10 + libmatroska v1.5.2
  13.  
  14. Video
  15. ID : 3
  16. Format : AVC
  17. Format/Info : Advanced Video Codec
  18. Format profile : High@L5
  19. Format settings : CABAC / 8 Ref Frames
  20. Format settings, CABAC : Yes
  21. Format settings, Reference frames : 8 frames
  22. Codec ID : V_MPEG4/ISO/AVC
  23. Duration : 2 h 7 min
  24. Bit rate : 3 000 kb/s
  25. Width : 1 920 pixels
  26. Height : 824 pixels
  27. Display aspect ratio : 2.35:1
  28. Frame rate mode : Constant
  29. Frame rate : 25.000 FPS
  30. Color space : YUV
  31. Chroma subsampling : 4:2:0
  32. Bit depth : 8 bits
  33. Scan type : Progressive
  34. Bits/(Pixel*Frame) : 0.076
  35. Stream size : 2.67 GiB (98%)
  36. Title : BollyMovies.Info
  37. Writing library : x264 core 164 r3065+9 7a0e6e8 [Mod by Patman]
  38. Encoding settings : cabac=1 / ref=8 / deblock=1:0:0 / analyse=0x3:0x133 / me=umh / subme=9 / psy=1 / psy_rd=1.00:0.00 / mixed_ref=1 / me_range=16 / chroma_me=1 / trellis=2 / 8x8dct=1 / cqm=0 / deadzone=21,11 / fast_pskip=1 / chroma_qp_offset=-2 / threads=26 / lookahead_threads=2 / sliced_threads=0 / nr=0 / decimate=1 / interlaced=0 / bluray_compat=0 / constrained_intra=0 / bframes=3 / b_pyramid=2 / b_adapt=2 / b_bias=0 / direct=3 / weightb=1 / open_gop=0 / weightp=2 / keyint=250 / keyint_min=25 / scenecut=40 / intra_refresh=0 / rc_lookahead=60 / rc=2pass / mbtree=1 / bitrate=3000 / ratetol=1.0 / qcomp=0.60 / qpmin=0 / qpmax=69 / qpstep=4 / cplxblur=20.0 / qblur=0.5 / ip_ratio=1.40 / aq=1:1.00
  39. Language : Hindi
  40. Default : Yes
  41. Forced : Yes
  42.  
  43. Audio
  44. ID : 1
  45. Format : AAC LC
  46. Format/Info : Advanced Audio Codec Low Complexity
  47. Codec ID : A_AAC-2
  48. Duration : 2 h 7 min
  49. Bit rate : 64.0 kb/s
  50. Channel(s) : 2 channels
  51. Channel layout : L R
  52. Sampling rate : 48.0 kHz
  53. Frame rate : 46.875 FPS (1024 SPF)
  54. Compression mode : Lossy
  55. Stream size : 58.4 MiB (2%)
  56. Title : BollyMovies.Info
  57. Language : Hindi
  58. Default : Yes
  59. Forced : Yes
  60.  
  61. Text
  62. ID : 2
  63. Format : UTF-8
  64. Codec ID : S_TEXT/UTF8
  65. Codec ID/Info : UTF-8 Plain Text
  66. Duration : 10 s 0 ms
  67. Bit rate : 252 b/s
  68. Count of elements : 4
  69. Stream size : 316 Bytes (0%)
  70. Title : BollyMovies.Info
  71. Language : Hindi
  72. Default : Yes
  73. Forced : Yes
  74.  
  75.  
Advertisement
Add Comment
Please, Sign In to add comment
Advertisement