iMN0

g.i.joe.the.rise.of.cobra.2009.1080p.bluray.dts.x264-wiki.mkv

Jun 30th, 2021
66
Never
Not a member of Pastebin yet? Sign Up, it unlocks many cool features!
  1. General
  2. Unique ID : 206747857892555835132874997329486431466 (0x9B8A30654626A7308928D41989E444EA)
  3. Complete name : g.i.joe.the.rise.of.cobra.2009.1080p.bluray.dts.x264-wiki.mkv
  4. Format : Matroska
  5. Format version : Version 1
  6. File size : 14.5 GiB
  7. Duration : 1 h 57 min
  8. Overall bit rate mode : Variable
  9. Overall bit rate : 17.6 Mb/s
  10. Encoded date : UTC 2009-10-08 17:08:00
  11. Writing application : mkvmerge v2.5.3 ('Boogie') built on Mar 7 2009 15:00:41
  12. Writing library : libebml v0.7.7 + libmatroska v0.8.1
  13.  
  14. Video
  15. ID : 1
  16. Format : AVC
  17. Format/Info : Advanced Video Codec
  18. Format profile : High@L4.1
  19. Format settings : CABAC / 5 Ref Frames
  20. Format settings, CABAC : Yes
  21. Format settings, Reference frames : 5 frames
  22. Codec ID : V_MPEG4/ISO/AVC
  23. Duration : 1 h 57 min
  24. Bit rate : 16.0 Mb/s
  25. Width : 1 920 pixels
  26. Height : 800 pixels
  27. Display aspect ratio : 2.40:1
  28. Frame rate mode : Constant
  29. Frame rate : 23.976 FPS
  30. Color space : YUV
  31. Chroma subsampling : 4:2:0
  32. Bit depth : 8 bits
  33. Scan type : Progressive
  34. Bits/(Pixel*Frame) : 0.434
  35. Stream size : 12.9 GiB (89%)
  36. Title : Video: x264_L4.1 @ 16000 Kbps
  37. Writing library : x264 core 68 r1184M 88b35c2
  38. Encoding settings : cabac=1 / ref=5 / deblock=1:-3:-3 / analyse=0x3:0x113 / me=umh / subme=9 / psy_rd=1.0:0.0 / mixed_ref=1 / me_range=32 / chroma_me=1 / trellis=2 / 8x8dct=1 / cqm=0 / deadzone=21,11 / chroma_qp_offset=-4 / threads=6 / nr=0 / decimate=1 / mbaff=0 / bframes=8 / b_pyramid=1 / b_adapt=2 / b_bias=0 / direct=1 / wpredb=1 / keyint=250 / keyint_min=25 / scenecut=40 / rc=2pass / bitrate=16000 / ratetol=1.0 / qcomp=0.60 / qpmin=10 / qpmax=51 / qpstep=4 / cplxblur=20.0 / qblur=0.5 / vbv_maxrate=50000 / vbv_bufsize=50000 / ip_ratio=1.40 / pb_ratio=1.30 / aq=1:1.00
  39. Language : English
  40. Default : Yes
  41. Forced : No
  42.  
  43. Audio #1
  44. ID : 2
  45. Format : DTS
  46. Format/Info : Digital Theater Systems
  47. Codec ID : A_DTS
  48. Duration : 1 h 57 min
  49. Bit rate mode : Constant
  50. Bit rate : 1 509 kb/s
  51. Channel(s) : 6 channels
  52. Channel layout : C L R Ls Rs LFE
  53. Sampling rate : 48.0 kHz
  54. Frame rate : 93.750 FPS (512 SPF)
  55. Bit depth : 24 bits
  56. Compression mode : Lossy
  57. Stream size : 1.24 GiB (9%)
  58. Title : Audio: English DTS 5.1 @ 1.5 Mbps
  59. Language : English
  60. Default : Yes
  61. Forced : No
  62.  
  63. Audio #2
  64. ID : 3
  65. Format : Vorbis
  66. Format settings, Floor : 1
  67. Codec ID : A_VORBIS
  68. Duration : 1 h 57 min
  69. Bit rate mode : Variable
  70. Bit rate : 80.0 kb/s
  71. Channel(s) : 2 channels
  72. Sampling rate : 48.0 kHz
  73. Compression mode : Lossy
  74. Stream size : 67.5 MiB (0%)
  75. Title : Commentary: English Vorbis 2.0 @ 80 Kbps
  76. Writing application : VLC media player
  77. Writing library : libVorbis 1.1.1/1.1.2 (UTC 2005-03-04)
  78. Language : English
  79. Default : No
  80. Forced : No
  81.  
  82. Text
  83. ID : 4
  84. Format : UTF-8
  85. Codec ID : S_TEXT/UTF8
  86. Codec ID/Info : UTF-8 Plain Text
  87. Title : English
  88. Language : English
  89. Default : Yes
  90. Forced : No
RAW Paste Data