GrabHD

Untitled

Feb 26th, 2020
105
Never
Not a member of Pastebin yet? Sign Up, it unlocks many cool features!
  1. General
  2. Unique ID : 227483970544648692593019301702564654265 (0xAB23D1AED57D69009167076164112CB9)
  3. Complete name : Zolotoe.kolco.2020.WEB-DL.(1080p).Getty.mkv
  4. Format : Matroska
  5. Format version : Version 4 / Version 2
  6. File size : 2.81 GiB
  7. Duration : 1 h 26 min
  8. Overall bit rate mode : Variable
  9. Overall bit rate : 4 974 kb/s
  10. Movie name : Zolotoe.kolco.2020.WEB-DL.(1080p).Getty
  11. Encoded date : UTC 2020-02-26 21:08:38
  12. Writing application : mkvmerge v7.8.0 ('River Man') 32bit built on Mar 27 2015 16:18:02
  13. Writing library : libebml v1.3.1 + libmatroska v1.4.2
  14.  
  15. Video
  16. ID : 1
  17. Format : AVC
  18. Format/Info : Advanced Video Codec
  19. Format profile : High@L4
  20. Format settings, CABAC : Yes
  21. Format settings, RefFrames : 1 frame
  22. Format settings, GOP : M=1, N=50
  23. Codec ID : V_MPEG4/ISO/AVC
  24. Duration : 1 h 26 min
  25. Bit rate mode : Variable
  26. Bit rate : 4 663 kb/s
  27. Width : 1 920 pixels
  28. Height : 800 pixels
  29. Display aspect ratio : 2.40:1
  30. Frame rate mode : Constant
  31. Frame rate : 25.000 FPS
  32. Color space : YUV
  33. Chroma subsampling : 4:2:0
  34. Bit depth : 8 bits
  35. Scan type : Progressive
  36. Bits/(Pixel*Frame) : 0.117
  37. Stream size : 2.70 GiB (96%)
  38. Default : Yes
  39. Forced : No
  40.  
  41. Audio
  42. ID : 2
  43. Format : AC-3
  44. Format/Info : Audio Coding 3
  45. Format settings, Endianness : Big
  46. Codec ID : A_AC3
  47. Duration : 1 h 26 min
  48. Bit rate mode : Constant
  49. Bit rate : 192 kb/s
  50. Channel(s) : 2 channels
  51. Channel positions : Front: L R
  52. Sampling rate : 48.0 kHz
  53. Frame rate : 31.250 FPS (1536 SPF)
  54. Bit depth : 16 bits
  55. Compression mode : Lossy
  56. Stream size : 119 MiB (4%)
  57. Service kind : Complete Main
  58. Default : Yes
  59. Forced : No
RAW Paste Data