Secasa

Untitled

May 16th, 2015
19
Never
Not a member of Pastebin yet? Sign Up, it unlocks many cool features!
  1. Format : Matroska
  2. Format version : Version 2
  3. File size : 11.5 GiB
  4. Duration : 1h 30mn
  5. Overall bit rate : 18.2 Mbps
  6. Encoded date : UTC 2015-05-15 21:01:58
  7. Writing application : mkvmerge v3.1.0 ('Happy up here') built on Jan 19 2010 12:09:24
  8. Writing library : libebml v0.7.9 + libmatroska v0.8.1
  9.  
  10. Video
  11. ID : 1
  12. Format : AVC
  13. Format/Info : Advanced Video Codec
  14. Format profile : High@L4.1
  15. Format settings, CABAC : Yes
  16. Format settings, ReFrames : 4 frames
  17. Codec ID : V_MPEG4/ISO/AVC
  18. Duration : 1h 30mn
  19. Bit rate : 15.9 Mbps
  20. Width : 1 920 pixels
  21. Height : 1 080 pixels
  22. Display aspect ratio : 16:9
  23. Frame rate mode : Constant
  24. Frame rate : 23.976 fps
  25. Color space : YUV
  26. Chroma subsampling : 4:2:0
  27. Bit depth : 8 bits
  28. Scan type : Progressive
  29. Bits/(Pixel*Frame) : 0.319
  30. Stream size : 10.0 GiB (87%)
  31. Writing library : x264 core 142 r2431+42 c69a006 tMod [8-bit@all X86_64]
  32. Encoding settings : cabac=1 / ref=4 / deblock=1:-3:-3 / analyse=0x3:0x133 / me=umh / subme=11 / psy=1 / fade_compensate=0.00 / psy_rd=1.05:0.00 / mixed_ref=1 / me_range=24 / chroma_me=1 / trellis=2 / 8x8dct=1 / cqm=0 / deadzone=21,11 / fast_pskip=0 / chroma_qp_offset=-2 / threads=24 / lookahead_threads=4 / sliced_threads=0 / nr=0 / decimate=0 / interlaced=0 / bluray_compat=0 / constrained_intra=0 / fgo=0 / bframes=8 / b_pyramid=2 / b_adapt=2 / b_bias=0 / direct=3 / weightb=1 / open_gop=0 / weightp=2 / keyint=250 / keyint_min=23 / scenecut=40 / intra_refresh=0 / rc=crf / mbtree=0 / crf=19.0000 / qcomp=0.75 / qpmin=0:0:0 / qpmax=69:69:69 / qpstep=4 / ip_ratio=1.30 / pb_ratio=1.20 / aq=1:0.85 / aq-sensitivity=10.00 / aq-factor=1.00:1.00:1.00 / aq2=0 / aq3=0
  33. Language : English
  34. Default : No
  35. Forced : No
  36.  
  37. Audio #1
  38. ID : 2
  39. Format : AC-3
  40. Format/Info : Audio Coding 3
  41. Mode extension : CM (complete main)
  42. Format settings, Endianness : Big
  43. Codec ID : A_AC3
  44. Duration : 1h 30mn
  45. Bit rate mode : Constant
  46. Bit rate : 448 Kbps
  47. Channel(s) : 6 channels
  48. Channel positions : Front: L C R, Side: L R, LFE
  49. Sampling rate : 48.0 KHz
  50. Bit depth : 16 bits
  51. Compression mode : Lossy
  52. Stream size : 290 MiB (2%)
  53. Language : Spanish
  54. Default : Yes
  55. Forced : No
  56.  
  57. Audio #2
  58. ID : 3
  59. Format : DTS
  60. Format/Info : Digital Theater Systems
  61. Mode : 16
  62. Format settings, Endianness : Big
  63. Codec ID : A_DTS
  64. Duration : 1h 30mn
  65. Bit rate mode : Constant
  66. Bit rate : 1 509 Kbps
  67. Channel(s) : 6 channels
  68. Channel positions : Front: L C R, Side: L R, LFE
  69. Sampling rate : 48.0 KHz
  70. Bit depth : 24 bits
  71. Compression mode : Lossy
  72. Delay relative to video : 11ms
  73. Stream size : 976 MiB (8%)
  74. Language : English
  75. Default : No
  76. Forced : No
  77.  
  78. Text #1
  79. ID : 4
  80. Format : UTF-8
  81. Codec ID : S_TEXT/UTF8
  82. Codec ID/Info : UTF-8 Plain Text
  83. Language : Spanish
  84. Default : No
  85. Forced : No
  86.  
  87. Text #2
  88. ID : 5
  89. Format : UTF-8
  90. Codec ID : S_TEXT/UTF8
  91. Codec ID/Info : UTF-8 Plain Text
  92. Language : English
  93. Default : No
  94. Forced : No
  95.  
  96. Text #3
  97. ID : 6
  98. Format : UTF-8
  99. Codec ID : S_TEXT/UTF8
  100. Codec ID/Info : UTF-8 Plain Text
  101. Title : SDH
  102. Language : English
  103. Default : No
  104. Forced : No
  105.  
  106. Menu
  107. 00:00:00.000 : en:00:00:00.000
  108. 00:04:46.661 : en:00:04:46.661
  109. 00:09:44.375 : en:00:09:44.375
  110. 00:13:03.116 : en:00:13:03.116
  111. 00:15:54.745 : en:00:15:54.745
  112. 00:20:53.085 : en:00:20:53.085
  113. 00:26:05.689 : en:00:26:05.689
  114. 00:30:07.305 : en:00:30:07.305
  115. 00:33:04.441 : en:00:33:04.441
  116. 00:37:55.023 : en:00:37:55.023
  117. 00:42:22.707 : en:00:42:22.707
  118. 00:47:48.407 : en:00:47:48.407
  119. 00:53:28.539 : en:00:53:28.539
  120. 00:55:57.020 : en:00:55:57.020
  121. 01:02:02.260 : en:01:02:02.260
  122. 01:05:19.499 : en:01:05:19.499
  123. 01:10:52.707 : en:01:10:52.707
  124. 01:15:58.220 : en:01:15:58.220
  125. 01:22:05.045 : en:01:22:05.045
  126. 01:25:48.894 : en:01:25:48.894
RAW Paste Data

Adblocker detected! Please consider disabling it...

We've detected AdBlock Plus or some other adblocking software preventing Pastebin.com from fully loading.

We don't have any obnoxious sound, or popup ads, we actively block these annoying types of ads!

Please add Pastebin.com to your ad blocker whitelist or disable your adblocking software.

×