Guest User

Untitled

a guest
Dec 30th, 2016
86
Never
Not a member of Pastebin yet? Sign Up, it unlocks many cool features!
  1. Общее
  2. Уникальный идентификатор : 244002763365389123596041273775899633227 (0xB791390C8EBE0927993E2108A7B9664B)
  3. Полное имя : F:\Video\The.Magnificent.Seven.2016.D.AVO.BDRip.720p.ExKinoRay.mkv
  4. Формат : Matroska
  5. Версия формата : Version 4 / Version 2
  6. Размер файла : 8,91 Гбайт
  7. Продолжительность : 2 ч. 12 м.
  8. Общий поток : 9605 Кбит/сек
  9. Название фильма : The.Magnificent.Seven.2016 ***селезень***
  10. Дата кодирования : UTC 2016-12-30 13:10:00
  11. Программа кодирования : mkvmerge v8.3.0 ('Over the Horizon') 64bit
  12. Библиотека кодирования : libebml v1.3.1 + libmatroska v1.4.2
  13.  
  14. Видео
  15. Идентификатор : 1
  16. Формат : AVC
  17. Формат/Информация : Advanced Video Codec
  18. Профиль формата : High@L4.1
  19. Параметр CABAC формата : Да
  20. Параметр ReFrames формата : 12 кадров
  21. Идентификатор кодека : V_MPEG4/ISO/AVC
  22. Продолжительность : 2 ч. 12 м.
  23. Битрейт : 6429 Кбит/сек
  24. Ширина : 1280 пикселей
  25. Высота : 534 пикселя
  26. Соотношение сторон : 2,40:1
  27. Режим частоты кадров : Постоянный
  28. Частота кадров : 23,976 (24000/1001) кадра/сек
  29. Цветовое пространство : YUV
  30. Субдискретизация насыщенности : 4:2:0
  31. Битовая глубина : 8 бит
  32. Тип развёртки : Прогрессивная
  33. Бит/(Пиксели*Кадры) : 0.392
  34. Размер потока : 5,96 Гбайт (67%)
  35. Заголовок : The.Magnificent.Seven.2016 ***селезень***
  36. Библиотека кодирования : x264 core 129 r2245 bc13772
  37. Настройки программы : cabac=1 / ref=12 / deblock=1:-3:-3 / analyse=0x3:0x133 / me=umh / subme=11 / psy=1 / psy_rd=1.05:0.10 / mixed_ref=1 / me_range=32 / chroma_me=1 / trellis=2 / 8x8dct=1 / cqm=0 / deadzone=21,11 / fast_pskip=0 / chroma_qp_offset=-3 / threads=12 / lookahead_threads=2 / sliced_threads=0 / nr=0 / decimate=1 / interlaced=0 / bluray_compat=0 / constrained_intra=0 / bframes=8 / b_pyramid=2 / b_adapt=2 / b_bias=0 / direct=3 / weightb=1 / open_gop=0 / weightp=2 / keyint=250 / keyint_min=23 / scenecut=40 / intra_refresh=0 / rc_lookahead=60 / rc=2pass / mbtree=1 / bitrate=6429 / ratetol=1.0 / qcomp=0.60 / qpmin=0 / qpmax=69 / qpstep=4 / cplxblur=20.0 / qblur=0.5 / ip_ratio=1.40 / aq=1:0.80
  38. Язык : English
  39. Default : Да
  40. Forced : Нет
  41.  
  42. Аудио #1
  43. Идентификатор : 2
  44. Формат : AC-3
  45. Формат/Информация : Audio Coding 3
  46. Расширение режима : CM (complete main)
  47. Параметр Endianness формата : Big
  48. Идентификатор кодека : A_AC3
  49. Продолжительность : 2 ч. 12 м.
  50. Вид битрейта : Постоянный
  51. Битрейт : 384 Кбит/сек
  52. Каналы : 6 каналов
  53. Расположение каналов : Front: L C R, Side: L R, LFE
  54. Частота : 48,0 КГц
  55. Частота кадров : 31,250 кадров/сек (1536 spf)
  56. Битовая глубина : 16 бит
  57. Метод сжатия : С потерями
  58. Размер потока : 365 Мбайт (4%)
  59. Заголовок : Dub [License]
  60. Язык : Russian
  61. Default : Да
  62. Forced : Нет
  63.  
  64. Аудио #2
  65. Идентификатор : 3
  66. Формат : AC-3
  67. Формат/Информация : Audio Coding 3
  68. Расширение режима : CM (complete main)
  69. Параметр Endianness формата : Big
  70. Идентификатор кодека : A_AC3
  71. Продолжительность : 2 ч. 12 м.
  72. Вид битрейта : Постоянный
  73. Битрейт : 640 Кбит/сек
  74. Каналы : 6 каналов
  75. Расположение каналов : Front: L C R, Side: L R, LFE
  76. Частота : 48,0 КГц
  77. Частота кадров : 31,250 кадров/сек (1536 spf)
  78. Битовая глубина : 16 бит
  79. Метод сжатия : С потерями
  80. Размер потока : 608 Мбайт (7%)
  81. Заголовок : AVO-AC3 [Esarev]
  82. Язык : Russian
  83. Default : Нет
  84. Forced : Нет
  85.  
  86. Аудио #3
  87. Идентификатор : 4
  88. Формат : DTS
  89. Формат/Информация : Digital Theater Systems
  90. Режим : 16
  91. Параметр Endianness формата : Big
  92. Идентификатор кодека : A_DTS
  93. Продолжительность : 2 ч. 12 м.
  94. Вид битрейта : Постоянный
  95. Битрейт : 1509 Кбит/сек
  96. Каналы : 6 каналов
  97. Расположение каналов : Front: L C R, Side: L R, LFE
  98. Частота : 48,0 КГц
  99. Частота кадров : 93,750 кадра/сек (512 spf)
  100. Битовая глубина : 16 бит
  101. Метод сжатия : С потерями
  102. Размер потока : 1,40 Гбайт (16%)
  103. Заголовок : AVO-DTS [Esarev]
  104. Язык : Russian
  105. Default : Нет
  106. Forced : Нет
  107.  
  108. Аудио #4
  109. Идентификатор : 5
  110. Формат : AC-3
  111. Формат/Информация : Audio Coding 3
  112. Расширение режима : CM (complete main)
  113. Параметр Endianness формата : Big
  114. Идентификатор кодека : A_AC3
  115. Продолжительность : 2 ч. 12 м.
  116. Вид битрейта : Постоянный
  117. Битрейт : 640 Кбит/сек
  118. Каналы : 6 каналов
  119. Расположение каналов : Front: L C R, Side: L R, LFE
  120. Частота : 48,0 КГц
  121. Частота кадров : 31,250 кадров/сек (1536 spf)
  122. Битовая глубина : 16 бит
  123. Метод сжатия : С потерями
  124. Размер потока : 608 Мбайт (7%)
  125. Заголовок : Original
  126. Язык : English
  127. Default : Нет
  128. Forced : Нет
  129.  
  130. Текст #1
  131. Идентификатор : 6
  132. Формат : UTF-8
  133. Идентификатор кодека : S_TEXT/UTF8
  134. Идентификатор кодека/Информация : UTF-8 Plain Text
  135. Продолжительность : 2 ч. 6 м.
  136. Битрейт : 0 бит/сек
  137. Count of elements : 18
  138. Размер потока : 535 байт (0%)
  139. Заголовок : Forced
  140. Язык : Russian
  141. Default : Да
  142. Forced : Нет
  143.  
  144. Текст #2
  145. Идентификатор : 7
  146. Формат : UTF-8
  147. Идентификатор кодека : S_TEXT/UTF8
  148. Идентификатор кодека/Информация : UTF-8 Plain Text
  149. Продолжительность : 2 ч. 7 м.
  150. Битрейт : 60 бит/сек
  151. Count of elements : 1494
  152. Размер потока : 56,7 Кбайт (0%)
  153. Заголовок : Full [Blu-Ray EUR]
  154. Язык : Russian
  155. Default : Нет
  156. Forced : Нет
  157.  
  158. Текст #3
  159. Идентификатор : 8
  160. Формат : UTF-8
  161. Идентификатор кодека : S_TEXT/UTF8
  162. Идентификатор кодека/Информация : UTF-8 Plain Text
  163. Продолжительность : 2 ч. 6 м.
  164. Битрейт : 48 бит/сек
  165. Count of elements : 1525
  166. Размер потока : 45,2 Кбайт (0%)
  167. Заголовок : Full
  168. Язык : English
  169. Default : Нет
  170. Forced : Нет
  171.  
  172. Текст #4
  173. Идентификатор : 9
  174. Формат : UTF-8
  175. Идентификатор кодека : S_TEXT/UTF8
  176. Идентификатор кодека/Информация : UTF-8 Plain Text
  177. Продолжительность : 2 ч. 6 м.
  178. Битрейт : 58 бит/сек
  179. Count of elements : 1835
  180. Размер потока : 54,0 Кбайт (0%)
  181. Заголовок : SDH
  182. Язык : English
  183. Default : Нет
  184. Forced : Нет
  185.  
  186. Меню
  187. 00:00:00.000 : :Chapter 1
  188. 00:04:53.710 : :Chapter 2
  189. 00:11:28.187 : :Chapter 3
  190. 00:18:12.591 : :Chapter 4
  191. 00:25:17.850 : :Chapter 5
  192. 00:31:55.956 : :Chapter 6
  193. 00:36:53.795 : :Chapter 7
  194. 00:42:05.857 : :Chapter 8
  195. 00:50:23.520 : :Chapter 9
  196. 00:59:57.844 : :Chapter 10
  197. 01:06:49.631 : :Chapter 11
  198. 01:16:08.439 : :Chapter 12
  199. 01:23:25.792 : :Chapter 13
  200. 01:34:06.766 : :Chapter 14
  201. 01:44:19.712 : :Chapter 15
  202. 01:54:47.297 : :Chapter 16
RAW Paste Data