Advertisement
Guest User

Untitled

a guest
Feb 23rd, 2024
60
0
Never
Not a member of Pastebin yet? Sign Up, it unlocks many cool features!
text 3.50 KB | None | 0 0
  1. General
  2. Unique ID : 18147085385824675223236647752612020329 (0xDA7006345FA8D295E2D0235BF518069)
  3. Complete name : Mazdoor.1983.WEB-DL.1080p.pca1962.mkv
  4. Format : Matroska
  5. Format version : Version 4
  6. File size : 2.07 GiB
  7. Duration : 2 h 42 min
  8. Overall bit rate : 1 818 kb/s
  9. Frame rate : 25.000 FPS
  10. Movie name : मजदूर (Full Movie) Mazdoor | Dilip Kumar | Nanda | Raj Babbar | Bollywood Drama
  11. Encoded date : 2024-02-23 17:30:05 UTC
  12. Writing application : mkvmerge v82.0 ('I'm The President') 64-bit
  13. Writing library : libebml v1.4.5 + libmatroska v1.7.1 / Lavf59.16.100
  14. Cover : Yes
  15. Comment : www.mediahuman.com
  16. Attachments : cover.jpg
  17.  
  18. Video
  19. ID : 1
  20. Format : AVC
  21. Format/Info : Advanced Video Codec
  22. Format profile : High@L4
  23. Format settings : CABAC / 3 Ref Frames
  24. Format settings, CABAC : Yes
  25. Format settings, Reference : 3 frames
  26. Codec ID : V_MPEG4/ISO/AVC
  27. Duration : 2 h 42 min
  28. Bit rate : 1 495 kb/s
  29. Width : 1 920 pixels
  30. Height : 1 080 pixels
  31. Display aspect ratio : 16:9
  32. Frame rate mode : Constant
  33. Frame rate : 25.000 FPS
  34. Color space : YUV
  35. Chroma subsampling : 4:2:0
  36. Bit depth : 8 bits
  37. Scan type : Progressive
  38. Bits/(Pixel*Frame) : 0.029
  39. Stream size : 1.70 GiB (82%)
  40. Title : Mazdoor (1983)
  41. Writing library : x264 core 155 r2901 7d0ff22
  42. Language : Russian
  43. Default : Yes
  44. Forced : No
  45. Color range : Limited
  46. Color primaries : BT.709
  47. Transfer characteristics : BT.709
  48. Matrix coefficients : BT.709
  49.  
  50. Audio #1
  51. ID : 2
  52. Format : AC-3
  53. Format/Info : Audio Coding 3
  54. Commercial name : Dolby Digital
  55. Codec ID : A_AC3
  56. Duration : 2 h 42 min
  57. Bit rate mode : Constant
  58. Bit rate : 192 kb/s
  59. Channel(s) : 2 channels
  60. Channel layout : L R
  61. Sampling rate : 48.0 kHz
  62. Frame rate : 31.250 FPS (1536 SPF)
  63. Compression mode : Lossy
  64. Stream size : 224 MiB (11%)
  65. Title : Russian (pca1962)
  66. Language : Russian
  67. Service kind : Complete Main
  68. Default : Yes
  69. Forced : No
  70.  
  71. Audio #2
  72. ID : 3
  73. Format : AAC LC
  74. Format/Info : Advanced Audio Codec Low Complexity
  75. Codec ID : A_AAC-2
  76. Duration : 2 h 42 min
  77. Bit rate : 128 kb/s
  78. Channel(s) : 2 channels
  79. Channel layout : L R
  80. Sampling rate : 44.1 kHz
  81. Frame rate : 43.066 FPS (1024 SPF)
  82. Compression mode : Lossy
  83. Stream size : 149 MiB (7%)
  84. Title : Hindi original
  85. Language : Hindi
  86. Default : No
  87. Forced : No
  88.  
  89.  
Advertisement
Add Comment
Please, Sign In to add comment
Advertisement