SHARE
TWEET

Dummie the Mummy and the Tomb of Achnetut BluRay 720p

dirtyharrys Jul 14th, 2019 58 Never
Not a member of Pastebin yet? Sign Up, it unlocks many cool features!
  1. General
  2. Unique ID                   : 221661775975052135559807748543600109780 (0xA6C28153FA2B9E69A6DDF2AE46DBA8D4)
  3. Complete name               : E:\QlJSRHRNYW5kdGhlVG9tYm9mQWNobmV0dXQ.mkv
  4. Format                      : Matroska
  5. Format version              : Version 4
  6. File size                   : 1.56 GiB
  7. Duration                    : 1 h 22 min
  8. Overall bit rate            : 2 702 kb/s
  9. Movie name                  : Dummie the Mummy and the Tomb of Achnetut BR-RIP / Dummie the Mummy and the Tomb of Achnetut BR-RIP
  10. Encoded date                : UTC 2019-07-14 07:02:43
  11. Writing application         : mkvmerge v30.1.0 ('Forever And More') 32-bit
  12. Writing library             : libebml v1.3.6 + libmatroska v1.4.9
  13. Copyright                   : Movies HDs 2019
  14. ARTIST                      : HarshLearner
  15.  
  16. Video
  17. ID                          : 1
  18. Format                      : AVC
  19. Format/Info                 : Advanced Video Codec
  20. Format profile              : Main@L4
  21. Format settings             : CABAC / 4 Ref Frames
  22. Format settings, CABAC      : Yes
  23. Format settings, ReFrames   : 4 frames
  24. Codec ID                    : V_MPEG4/ISO/AVC
  25. Duration                    : 1 h 22 min
  26. Bit rate                    : 2 000 kb/s
  27. Width                       : 1 280 pixels
  28. Height                      : 538 pixels
  29. Display aspect ratio        : 2.40:1
  30. Frame rate mode             : Constant
  31. Frame rate                  : 23.976 (24000/1001) FPS
  32. Color space                 : YUV
  33. Chroma subsampling          : 4:2:0
  34. Bit depth                   : 8 bits
  35. Scan type                   : Progressive
  36. Bits/(Pixel*Frame)          : 0.121
  37. Stream size                 : 1.15 GiB (74%)
  38. Title                       : Dummie the Mummy and the Tomb of Achnetut
  39. Writing library             : x264 core 157 r2935 545de2f
  40. Default                     : Yes
  41. Forced                      : No
  42. Color range                 : Limited
  43. Color primaries             : BT.709
  44. Transfer characteristics    : BT.709
  45. Matrix coefficients         : BT.709
  46.  
  47. Audio #1
  48. ID                          : 2
  49. Format                      : AC-3
  50. Format/Info                 : Audio Coding 3
  51. Commercial name             : Dolby Digital
  52. Codec ID                    : A_AC3
  53. Duration                    : 1 h 22 min
  54. Bit rate mode               : Constant
  55. Bit rate                    : 448 kb/s
  56. Channel(s)                  : 6 channels
  57. Channel layout              : L R C LFE Ls Rs
  58. Sampling rate               : 48.0 kHz
  59. Frame rate                  : 31.250 FPS (1536 SPF)
  60. Bit depth                   : 16 bits
  61. Compression mode            : Lossy
  62. Delay relative to video     : 5 ms
  63. Stream size                 : 264 MiB (17%)
  64. Language                    : Dutch
  65. Service kind                : Complete Main
  66. Default                     : No
  67. Forced                      : No
  68.  
  69. Audio #2
  70. ID                          : 3
  71. Format                      : AC-3
  72. Format/Info                 : Audio Coding 3
  73. Commercial name             : Dolby Digital
  74. Codec ID                    : A_AC3
  75. Duration                    : 1 h 22 min
  76. Bit rate mode               : Constant
  77. Bit rate                    : 256 kb/s
  78. Channel(s)                  : 2 channels
  79. Channel layout              : L R
  80. Sampling rate               : 48.0 kHz
  81. Frame rate                  : 31.250 FPS (1536 SPF)
  82. Bit depth                   : 16 bits
  83. Compression mode            : Lossy
  84. Stream size                 : 151 MiB (9%)
  85. Language                    : Spanish
  86. Service kind                : Complete Main
  87. Default                     : Yes
  88. Forced                      : Yes
  89.  
  90. Text #1
  91. ID                          : 4
  92. Format                      : UTF-8
  93. Codec ID                    : S_TEXT/UTF8
  94. Codec ID/Info               : UTF-8 Plain Text
  95. Duration                    : 1 h 19 min
  96. Bit rate                    : 44 b/s
  97. Count of elements           : 837
  98. Stream size                 : 26.2 KiB (0%)
  99. Language                    : Spanish
  100. Default                     : Yes
  101. Forced                      : Yes
  102.  
  103. Text #2
  104. ID                          : 5
  105. Format                      : UTF-8
  106. Codec ID                    : S_TEXT/UTF8
  107. Codec ID/Info               : UTF-8 Plain Text
  108. Duration                    : 23 min 45 s
  109. Bit rate                    : 0 b/s
  110. Count of elements           : 7
  111. Stream size                 : 116 Bytes (0%)
  112. Language                    : Spanish
  113. Default                     : No
  114. Forced                      : No
RAW Paste Data
We use cookies for various purposes including analytics. By continuing to use Pastebin, you agree to our use of cookies as described in the Cookies Policy. OK, I Understand
Not a member of Pastebin yet?
Sign Up, it unlocks many cool features!
 
Top