daily pastebin goal
28%
SHARE
TWEET

Untitled

Secasa May 25th, 2016 7 Never
Not a member of Pastebin yet? Sign Up, it unlocks many cool features!
  1. Format                                   : Matroska
  2. Format version                           : Version 2
  3. File size                                : 3.67 GiB
  4. Duration                                 : 1h 35mn
  5. Overall bit rate                         : 5 499 Kbps
  6. Encoded date                             : UTC 2016-05-25 00:17:00
  7. Writing application                      : mkvmerge v5.3.0 ('I could have danced') built on Feb  9 2012 10:38:07
  8. Writing library                          : libebml v1.2.3 + libmatroska v1.3.0
  9.  
  10. Video
  11. ID                                       : 1
  12. Format                                   : AVC
  13. Format/Info                              : Advanced Video Codec
  14. Format profile                           : High@L4.1
  15. Format settings, CABAC                   : Yes
  16. Format settings, ReFrames                : 4 frames
  17. Codec ID                                 : V_MPEG4/ISO/AVC
  18. Duration                                 : 1h 35mn
  19. Bit rate                                 : 4 557 Kbps
  20. Nominal bit rate                         : 4 800 Kbps
  21. Width                                    : 1 920 pixels
  22. Height                                   : 804 pixels
  23. Display aspect ratio                     : 2.40:1
  24. Frame rate mode                          : Constant
  25. Frame rate                               : 23.976 fps
  26. Color space                              : YUV
  27. Chroma subsampling                       : 4:2:0
  28. Bit depth                                : 8 bits
  29. Scan type                                : Progressive
  30. Bits/(Pixel*Frame)                       : 0.123
  31. Stream size                              : 3.04 GiB (83%)
  32. Writing library                          : x264 core 142 r2479 dd79a61
  33. Encoding settings                        : cabac=1 / ref=1 / deblock=1:-3:-3 / analyse=0x3:0x113 / me=hex / subme=2 / psy=1 / psy_rd=1.00:0.15 / mixed_ref=0 / me_range=16 / chroma_me=1 / trellis=0 / 8x8dct=1 / cqm=0 / deadzone=21,11 / fast_pskip=1 / chroma_qp_offset=0 / threads=12 / lookahead_threads=4 / sliced_threads=0 / nr=0 / decimate=1 / interlaced=0 / bluray_compat=0 / constrained_intra=0 / bframes=3 / b_pyramid=2 / b_adapt=1 / b_bias=0 / direct=1 / weightb=1 / open_gop=0 / weightp=1 / keyint=240 / keyint_min=24 / scenecut=40 / intra_refresh=0 / rc_lookahead=10 / rc=abr / mbtree=1 / bitrate=4800 / ratetol=1.0 / qcomp=0.60 / qpmin=0 / qpmax=69 / qpstep=4 / vbv_maxrate=62500 / vbv_bufsize=78125 / nal_hrd=none / filler=0 / ip_ratio=1.40 / aq=1:1.00
  34. Default                                  : Yes
  35. Forced                                   : No
  36. Color primaries                          : BT.709
  37. Transfer characteristics                 : BT.709
  38. Matrix coefficients                      : BT.709
  39.  
  40. Audio #1
  41. ID                                       : 2
  42. Format                                   : AC-3
  43. Format/Info                              : Audio Coding 3
  44. Mode extension                           : CM (complete main)
  45. Format settings, Endianness              : Big
  46. Codec ID                                 : A_AC3
  47. Duration                                 : 1h 35mn
  48. Bit rate mode                            : Constant
  49. Bit rate                                 : 384 Kbps
  50. Channel count                            : 2 channels
  51. Channel positions                        : Front: L R
  52. Sampling rate                            : 48.0 KHz
  53. Bit depth                                : 16 bits
  54. Compression mode                         : Lossy
  55. Delay relative to video                  : -55ms
  56. Stream size                              : 262 MiB (7%)
  57. Language                                 : Spanish
  58. Default                                  : Yes
  59. Forced                                   : Yes
  60.  
  61. Audio #2
  62. ID                                       : 3
  63. Format                                   : AC-3
  64. Format/Info                              : Audio Coding 3
  65. Mode extension                           : CM (complete main)
  66. Format settings, Endianness              : Big
  67. Codec ID                                 : A_AC3
  68. Duration                                 : 1h 35mn
  69. Bit rate mode                            : Constant
  70. Bit rate                                 : 448 Kbps
  71. Channel count                            : 6 channels
  72. Channel positions                        : Front: L C R, Side: L R, LFE
  73. Sampling rate                            : 48.0 KHz
  74. Bit depth                                : 16 bits
  75. Compression mode                         : Lossy
  76. Delay relative to video                  : -83ms
  77. Stream size                              : 306 MiB (8%)
  78. Language                                 : English
  79. Default                                  : No
  80. Forced                                   : No
  81.  
  82. Text #1
  83. ID                                       : 4
  84. Format                                   : UTF-8
  85. Codec ID                                 : S_TEXT/UTF8
  86. Codec ID/Info                            : UTF-8 Plain Text
  87. Language                                 : Spanish
  88. Default                                  : No
  89. Forced                                   : No
  90.  
  91. Text #2
  92. ID                                       : 5
  93. Format                                   : UTF-8
  94. Codec ID                                 : S_TEXT/UTF8
  95. Codec ID/Info                            : UTF-8 Plain Text
  96. Language                                 : English
  97. Default                                  : No
  98. Forced                                   : No
  99.  
  100. Menu
  101. 00:00:00.000                             : :00:00:00.000
  102. 00:04:37.986                             : :00:04:37.861
  103. 00:08:25.838                             : :00:08:25.714
  104. 00:11:40.866                             : :00:11:40.742
  105. 00:15:48.989                             : :00:15:48.906
  106. 00:18:59.763                             : :00:18:59.638
  107. 00:23:35.330                             : :00:23:35.247
  108. 00:27:29.564                             : :00:27:29.481
  109. 00:33:51.529                             : :00:33:51.446
  110. 00:39:11.849                             : :00:39:11.766
  111. 00:44:00.095                             : :00:43:59.971
  112. 00:46:09.475                             : :00:46:09.350
  113. 00:51:56.613                             : :00:51:56.530
  114. 00:56:39.729                             : :00:56:39.605
  115. 00:59:27.897                             : :00:59:27.814
  116. 01:04:24.777                             : :01:04:24.694
  117. 01:10:16.712                             : :01:10:16.629
  118. 01:16:40.888                             : :01:16:40.763
  119. 01:22:23.939                             : :01:22:23.814
  120. 01:28:02.902                             : :01:28:02.819
RAW Paste Data
We use cookies for various purposes including analytics. By continuing to use Pastebin, you agree to our use of cookies as described in the Cookies Policy. OK, I Understand
 
Top