SHARE
TWEET

Untitled

a guest Feb 19th, 2019 94 Never
Not a member of Pastebin yet? Sign Up, it unlocks many cool features!
  1. ffplay rtsp://cam/h264/stream
  2.  
  3. Stream #0:0: Video: h264 (Baseline), yuv420p(progressive), 1280x720, 30 fps, 30 tbr, 90k tbn, 180k tbc
  4.  
  5. ffplay rtsp://cam/mjpeg/stream
  6.  
  7. Stream #0:0: Video: mjpeg, yuvj422p(pc, bt470bg/unknown/unknown), 1280x720 [SAR 1:1 DAR 16:9], 30 fps, 30 tbr, 90k tbn, 90k tbc
  8.      
  9. ffmpeg -i rtsp://cam/mjpeg/stream -vf scale=in_range=tv  -f matroska - | ffplay -
RAW Paste Data
We use cookies for various purposes including analytics. By continuing to use Pastebin, you agree to our use of cookies as described in the Cookies Policy. OK, I Understand
 
Top