Interfilm

Untitled

Jun 16th, 2014
270
Never
Not a member of Pastebin yet? Sign Up, it unlocks many cool features!
  1. General
  2. Gatchaman.2013.Blu.Ray.1080p.CINEMANIA.mkv
  3. Format : Matroska
  4. Format version : Version 4 / Version 2
  5. File size : 9.65 GiB
  6. Duration : 1h 49mn
  7. Overall bit rate : 12.6 Mbps
  8. Movie name : Release Group CINEMANIA
  9. Encoded date : UTC 2014-06-16 20:32:24
  10. Writing application : mkvmerge v7.0.0 ('Where We Going') 64bit built on Jun 9 2014 15:16:27
  11. Writing library : libebml v1.3.0 + libmatroska v1.4.1
  12.  
  13. Video
  14. ID : 1
  15. Format : AVC
  16. Format/Info : Advanced Video Codec
  17. Format profile : High@L4.1
  18. Format settings, CABAC : Yes
  19. Format settings, ReFrames : 5 frames
  20. Codec ID : V_MPEG4/ISO/AVC
  21. Duration : 1h 49mn
  22. Bit rate : 11.8 Mbps
  23. Width : 1 920 pixels
  24. Height : 800 pixels
  25. Display aspect ratio : 2.40:1
  26. Frame rate mode : Constant
  27. Frame rate : 23.976 fps
  28. Color space : YUV
  29. Chroma subsampling : 4:2:0
  30. Bit depth : 8 bits
  31. Scan type : Progressive
  32. Bits/(Pixel*Frame) : 0.319
  33. Stream size : 8.82 GiB (91%)
  34. Title : Release Group CINEMANIA
  35. Writing library : x264 core 136 r2348+704+51 d1baef6 tMod [8-bit@all X86_64]
  36. Encoding settings : cabac=1 / ref=5 / deblock=1:-3:-3 / analyse=0x3:0x133 / me=umh / subme=11 / psy=1 / fade_compensate=0.00 / psy_rd=1.05:0.05 / mixed_ref=1 / me_range=64 / chroma_me=1 / trellis=2 / 8x8dct=1 / cqm=0 / deadzone=21,11 / fast_pskip=0 / chroma_qp_offset=-3 / threads=12 / lookahead_threads=2 / sliced_threads=0 / nr=0 / decimate=0 / interlaced=0 / bluray_compat=0 / constrained_intra=0 / fgo=0 / bframes=8 / b_pyramid=2 / b_adapt=2 / b_bias=0 / direct=3 / weightb=1 / open_gop=0 / weightp=2 / keyint=250 / keyint_min=23 / scenecut=40 / intra_refresh=0 / rc_lookahead=150 / rc=2pass / mbtree=0 / bitrate=11755 / ratetol=1.0 / qcomp=0.70 / qpmin=0:0:0 / qpmax=69:69:69 / qpstep=4 / cplxblur=20.0 / qblur=0.5 / vbv_maxrate=50000 / vbv_bufsize=50000 / nal_hrd=none / ip_ratio=1.40 / pb_ratio=1.30 / aq=1:0.85 / aq-sensitivity=10.00 / aq-factor=1.00:1.00:1.00 / aq2=0 / aq3=0
  37. Language : Japanese
  38. Default : Yes
  39. Forced : No
  40. Matrix coefficients : BT.709
  41.  
  42. Audio #1
  43. ID : 2
  44. Format : AC-3
  45. Format/Info : Audio Coding 3
  46. Mode extension : CM (complete main)
  47. Format settings, Endianness : Big
  48. Codec ID : A_AC3
  49. Duration : 1h 49mn
  50. Bit rate mode : Constant
  51. Bit rate : 192 Kbps
  52. Channel(s) : 2 channels
  53. Channel positions : Front: L R
  54. Sampling rate : 48.0 KHz
  55. Bit depth : 16 bits
  56. Compression mode : Lossy
  57. Stream size : 151 MiB (2%)
  58. Title : den904 и Айчик
  59. Language : Russian
  60. Default : Yes
  61. Forced : Yes
  62.  
  63. Audio #2
  64. ID : 3
  65. Format : AC-3
  66. Format/Info : Audio Coding 3
  67. Mode extension : CM (complete main)
  68. Format settings, Endianness : Big
  69. Codec ID : A_AC3
  70. Duration : 1h 49mn
  71. Bit rate mode : Constant
  72. Bit rate : 640 Kbps
  73. Channel(s) : 6 channels
  74. Channel positions : Front: L C R, Side: L R, LFE
  75. Sampling rate : 48.0 KHz
  76. Bit depth : 16 bits
  77. Compression mode : Lossy
  78. Stream size : 503 MiB (5%)
  79. Language : Japanese
  80. Default : No
  81. Forced : No
  82.  
  83. Text
  84. ID : 4
  85. Format : UTF-8
  86. Codec ID : S_TEXT/UTF8
  87. Codec ID/Info : UTF-8 Plain Text
  88. Language : English
  89. Default : No
  90. Forced : No
  91.  
  92. Menu
  93. 00:00:00.000 : en:00:00:00.000
  94. 00:08:48.486 : en:00:08:48.486
  95. 00:21:13.772 : en:00:21:13.772
  96. 00:29:49.913 : en:00:29:49.913
  97. 00:36:07.624 : en:00:36:07.624
  98. 00:45:01.073 : en:00:45:01.073
  99. 00:53:50.561 : en:00:53:50.561
  100. 01:04:38.541 : en:01:04:38.541
  101. 01:12:50.866 : en:01:12:50.866
  102. 01:22:14.263 : en:01:22:14.263
  103. 01:31:02.415 : en:01:31:02.415
  104. 01:40:40.660 : en:01:40:40.660
RAW Paste Data