trds

Untitled

Oct 14th, 2021
55
Never
Not a member of Pastebin yet? Sign Up, it unlocks many cool features!
  1. General
  2. Unique ID                                : 155526020831326928548513655155743536156 (0x750138D94137F382939C1456FB34341C)
  3. Complete name                            : D:\Encodes\Snake.Eyes.G.I.Joe.Origins.2021.BDRip.DD5.1.x264-playSD\Snake.Eyes.G.I.Joe.Origins.2021.BDRip.DD5.1.x264-playSD.mkv
  4. Format                                   : Matroska
  5. Format version                           : Version 4
  6. File size                                : 2.01 GiB
  7. Duration                                 : 2 h 1 min
  8. Overall bit rate                         : 2 365 kb/s
  9. Encoded date                             : UTC 2021-10-14 09:43:24
  10. Writing application                      : mkvmerge v56.1.0 ('My Friend') 64-bit
  11. Writing library                          : libebml v1.4.2 + libmatroska v1.6.4
  12.  
  13. Video
  14. ID                                       : 1
  15. Format                                   : AVC
  16. Format/Info                              : Advanced Video Codec
  17. Format profile                           : High@L4.1
  18. Format settings                          : CABAC / 16 Ref Frames
  19. Format settings, CABAC                   : Yes
  20. Format settings, Reference frames        : 16 frames
  21. Codec ID                                 : V_MPEG4/ISO/AVC
  22. Duration                                 : 2 h 1 min
  23. Bit rate                                 : 1 979 kb/s
  24. Width                                    : 720 pixels
  25. Height                                   : 302 pixels
  26. Display aspect ratio                     : 2.40:1
  27. Frame rate mode                          : Constant
  28. Frame rate                               : 23.976 (24000/1001) FPS
  29. Color space                              : YUV
  30. Chroma subsampling                       : 4:2:0
  31. Bit depth                                : 8 bits
  32. Scan type                                : Progressive
  33. Bits/(Pixel*Frame)                       : 0.380
  34. Stream size                              : 1.68 GiB (84%)
  35. Writing library                          : x264 core 161 r3048+53M t_mod ~~~~~~~ Just us ~ JigSaw & droops16 ~
  36. Encoding settings                        : cabac=1 / ref=16 / deblock=1:-3:-3 / analyse=0x3:0x133 / me=umh / subme=10 / psy=1 / fade_compensate=0.00 / psy_rd=1.00:0.00 / mixed_ref=1 / me_range=32 / chroma_me=1 / trellis=2 / 8x8dct=1 / cqm=0 / deadzone=21,11 / fast_pskip=0 / chroma_qp_offset=-2 / threads=12 / lookahead_threads=2 / sliced_threads=0 / nr=0 / decimate=0 / interlaced=0 / bluray_compat=0 / constrained_intra=0 / fgo=0 / bframes=9 / b_pyramid=2 / b_adapt=2 / b_bias=0 / direct=3 / weightb=1 / open_gop=0 / weightp=2 / keyint=250 / keyint_min=23 / scenecut=40 / intra_refresh=0 / rc=crf / mbtree=0 / crf=14.0000 / qcomp=0.60 / qpmin=0:0:0 / qpmax=69:69:69 / qpstep=4 / ip_ratio=1.30 / pb_ratio=1.20 / aq=3:0.85 / aq-sensitivity=10.00 / aq-factor=1.00:1.00:1.00 / aq2=0 / aq3=0
  37. Language                                 : English
  38. Default                                  : Yes
  39. Forced                                   : No
  40.  
  41. Audio
  42. ID                                       : 2
  43. Format                                   : AC-3
  44. Format/Info                              : Audio Coding 3
  45. Commercial name                          : Dolby Digital
  46. Codec ID                                 : A_AC3
  47. Duration                                 : 2 h 1 min
  48. Bit rate mode                            : Constant
  49. Bit rate                                 : 384 kb/s
  50. Channel(s)                               : 6 channels
  51. Channel layout                           : L R C LFE Ls Rs
  52. Sampling rate                            : 48.0 kHz
  53. Frame rate                               : 31.250 FPS (1536 SPF)
  54. Compression mode                         : Lossy
  55. Stream size                              : 333 MiB (16%)
  56. Language                                 : English
  57. Service kind                             : Complete Main
  58. Default                                  : Yes
  59. Forced                                   : No
  60.  
  61. Text #1
  62. ID                                       : 3
  63. Format                                   : UTF-8
  64. Codec ID                                 : S_TEXT/UTF8
  65. Codec ID/Info                            : UTF-8 Plain Text
  66. Duration                                 : 1 h 52 min
  67. Bit rate                                 : 27 b/s
  68. Count of elements                        : 790
  69. Stream size                              : 22.9 KiB (0%)
  70. Language                                 : English
  71. Default                                  : No
  72. Forced                                   : No
  73.  
  74. Text #2
  75. ID                                       : 4
  76. Format                                   : UTF-8
  77. Codec ID                                 : S_TEXT/UTF8
  78. Codec ID/Info                            : UTF-8 Plain Text
  79. Duration                                 : 1 h 52 min
  80. Bit rate                                 : 31 b/s
  81. Count of elements                        : 978
  82. Stream size                              : 25.7 KiB (0%)
  83. Title                                    : SDH
  84. Language                                 : English
  85. Default                                  : No
  86. Forced                                   : No
  87.  
  88. Text #3
  89. ID                                       : 5
  90. Format                                   : UTF-8
  91. Codec ID                                 : S_TEXT/UTF8
  92. Codec ID/Info                            : UTF-8 Plain Text
  93. Duration                                 : 1 h 59 min
  94. Bit rate                                 : 25 b/s
  95. Count of elements                        : 763
  96. Stream size                              : 22.5 KiB (0%)
  97. Language                                 : Romanian
  98. Default                                  : No
  99. Forced                                   : No
  100.  
  101. Menu
  102. 00:00:00.000                             : :Chapter 01
  103. 00:10:17.367                             : :Chapter 02
  104. 00:19:39.887                             : :Chapter 03
  105. 00:28:50.062                             : :Chapter 04
  106. 00:37:50.977                             : :Chapter 05
  107. 00:43:39.867                             : :Chapter 06
  108. 00:54:53.790                             : :Chapter 07
  109. 01:03:18.920                             : :Chapter 08
  110. 01:14:04.440                             : :Chapter 09
  111. 01:23:59.117                             : :Chapter 10
  112. 01:29:09.219                             : :Chapter 11
  113. 01:36:39.293                             : :Chapter 12
  114. 01:46:26.922                             : :Chapter 13
  115. 01:53:51.533                             : :Chapter 14
  116. 02:01:24.694                             : :Chapter 15
  117.  
  118. //
  119.  
  120.  
  121. x264 [info]: frame I:1487  Avg QP:11.09  size: 48646
  122. x264 [info]: frame P:42037 Avg QP:13.16  size: 19297
  123. x264 [info]: frame B:131140 Avg QP:14.12  size:  7003
  124. x264 [info]: consecutive B-frames:  3.4%  4.6% 11.2% 23.2% 18.6% 25.4%  5.8%  3.4%  2.6%  1.9%
RAW Paste Data