HYBRID_BEING

[Aeon]Pocket_Monsters_Sun_&_Moon_01-02_Special[FE5C85AC].mkv

Dec 21st, 2016
127
Never
Not a member of Pastebin yet? Sign Up, it unlocks many cool features!
  1. General
  2. Unique ID : 203941235117623383756641588278836966310 (0x996DA7358C68BFE7ACD66451E7D1B3A6)
  3. Complete name : [Aeon]Pocket_Monsters_Sun_&_Moon_01-02_Special[FE5C85AC].mkv
  4. Format : Matroska
  5. Format version : Version 4 / Version 2
  6. File size : 880 MiB
  7. Duration : 45mn 40s
  8. Overall bit rate : 2 694 Kbps
  9. Encoded date : UTC 2016-11-19 15:00:00
  10. Writing application : mkvmerge v8.3.0 ('Over the Horizon') 32bit
  11. Writing library : libebml v1.3.1 + libmatroska v1.4.2
  12. Attachments : Trebuchet MS.ttf / Soft Marshmallow.otf
  13.  
  14. Video
  15. ID : 1
  16. Format : AVC
  17. Format/Info : Advanced Video Codec
  18. Format profile : High@L3.1
  19. Format settings, CABAC : Yes
  20. Format settings, ReFrames : 4 frames
  21. Codec ID : V_MPEG4/ISO/AVC
  22. Duration : 45mn 40s
  23. Bit rate : 2 530 Kbps
  24. Width : 1 280 pixels
  25. Height : 720 pixels
  26. Display aspect ratio : 16:9
  27. Frame rate mode : Constant
  28. Frame rate : 23.976 (24000/1001) fps
  29. Original frame rate : 23.976 (23976/1000) fps
  30. Color space : YUV
  31. Chroma subsampling : 4:2:0
  32. Bit depth : 8 bits
  33. Scan type : Progressive
  34. Bits/(Pixel*Frame) : 0.114
  35. Stream size : 826 MiB (94%)
  36. Title : Japanese
  37. Writing library : x264 core 148 r2694bm 3b70645
  38. Encoding settings : cabac=1 / ref=4 / deblock=1:1:1 / analyse=0x3:0x113 / me=hex / subme=6 / psy=1 / psy_rd=0.40:0.00 / mixed_ref=1 / me_range=16 / chroma_me=1 / trellis=1 / 8x8dct=1 / cqm=0 / deadzone=21,11 / fast_pskip=1 / chroma_qp_offset=-2 / threads=12 / lookahead_threads=2 / sliced_threads=0 / nr=0 / decimate=1 / interlaced=0 / bluray_compat=0 / constrained_intra=0 / bframes=5 / b_pyramid=2 / b_adapt=1 / b_bias=0 / direct=1 / weightb=1 / open_gop=0 / weightp=1 / keyint=250 / keyint_min=23 / scenecut=40 / intra_refresh=0 / rc_lookahead=30 / rc=2pass / mbtree=1 / bitrate=2530 / ratetol=1.0 / qcomp=0.60 / qpmin=0 / qpmax=69 / qpstep=4 / cplxblur=20.0 / qblur=0.5 / ip_ratio=1.40 / aq=1:0.60
  39. Language : Japanese
  40. Default : Yes
  41. Forced : No
  42.  
  43. Audio
  44. ID : 2
  45. Format : AAC
  46. Format/Info : Advanced Audio Codec
  47. Format profile : LC
  48. Codec ID : A_AAC
  49. Duration : 45mn 40s
  50. Bit rate : 160 Kbps
  51. Channel(s) : 2 channels
  52. Channel positions : Front: L R
  53. Sampling rate : 48.0 KHz
  54. Frame rate : 46.875 fps (1024 spf)
  55. Compression mode : Lossy
  56. Stream size : 52.4 MiB (6%)
  57. Title : Japanese
  58. Language : Japanese
  59. Default : Yes
  60. Forced : No
  61.  
  62. Text
  63. ID : 3
  64. Format : ASS
  65. Codec ID : S_TEXT/ASS
  66. Codec ID/Info : Advanced Sub Station Alpha
  67. Duration : 45mn 27s
  68. Bit rate : 107 bps
  69. Count of elements : 608
  70. Compression mode : Lossless
  71. Stream size : 35.7 KiB (0%)
  72. Title : English
  73. Language : English
  74. Default : Yes
  75. Forced : No
  76.  
  77. Menu
  78. 00:00:00.000 : :Start
  79. 00:01:17.000 : :OP
  80. 00:02:45.000 : :[#01] A-part
  81. 00:10:52.000 : :Sponsor
  82. 00:11:07.000 : :[#01] B-part
  83. 00:22:54.000 : :[#02] A-part
  84. 00:30:42.000 : :[#02] B-part
  85. 00:44:05.000 : :ED
  86. 00:45:26.000 : :Sponsor
  87. 00:45:40.000 : :End
RAW Paste Data