SHARE
TWEET

The.Verdict.1982.1080p.BluRay.REMUX.AVC.DTS-HD.MA.5.1-EPSiLON

a guest Jun 13th, 2019 26 Never
Not a member of Pastebin yet? Sign Up, it unlocks many cool features!
  1. General
  2. Unique ID                                : 4795854985778410867721553274889997732 (0x39BA5E81613AD7FB27C9E7B52428DA4)
  3. Complete name                            : The.Verdict.1982.1080p.BluRay.REMUX.AVC.DTS-HD.MA.5.1-EPSiLON.mkv
  4. Format                                   : Matroska
  5. Format version                           : Version 4
  6. File size                                : 28.8 GiB
  7. Duration                                 : 2 h 8 min
  8. Overall bit rate mode                    : Variable
  9. Overall bit rate                         : 32.0 Mb/s
  10. Movie name                               : The Verdict (1982)
  11. Encoded date                             : UTC 2018-11-06 19:44:54
  12. Writing application                      : mkvmerge v27.0.0 ('Metropolis') 64-bit
  13. Writing library                          : libebml v1.3.6 + libmatroska v1.4.9
  14.  
  15. Video
  16. ID                                       : 1
  17. Format                                   : AVC
  18. Format/Info                              : Advanced Video Codec
  19. Format profile                           : High@L4.1
  20. Format settings                          : CABAC / 4 Ref Frames
  21. Format settings, CABAC                   : Yes
  22. Format settings, Reference frames        : 4 frames
  23. Codec ID                                 : V_MPEG4/ISO/AVC
  24. Duration                                 : 2 h 8 min
  25. Bit rate mode                            : Variable
  26. Bit rate                                 : 28.7 Mb/s
  27. Maximum bit rate                         : 32.0 Mb/s
  28. Width                                    : 1 920 pixels
  29. Height                                   : 1 080 pixels
  30. Display aspect ratio                     : 16:9
  31. Frame rate mode                          : Constant
  32. Frame rate                               : 23.976 (24000/1001) FPS
  33. Color space                              : YUV
  34. Chroma subsampling                       : 4:2:0
  35. Bit depth                                : 8 bits
  36. Scan type                                : Progressive
  37. Bits/(Pixel*Frame)                       : 0.578
  38. Stream size                              : 25.9 GiB (90%)
  39. Title                                    : MPEG-4 AVC Video / 28850 kbps / 1080p / 23.976 fps / 16:9 / High Profile 4.1
  40. Language                                 : English
  41. Default                                  : Yes
  42. Forced                                   : No
  43.  
  44. Audio #1
  45. ID                                       : 2
  46. Format                                   : DTS XLL
  47. Format/Info                              : Digital Theater Systems
  48. Commercial name                          : DTS-HD Master Audio
  49. Codec ID                                 : A_DTS
  50. Duration                                 : 2 h 8 min
  51. Bit rate mode                            : Variable
  52. Bit rate                                 : 2 434 kb/s
  53. Channel(s)                               : 6 channels
  54. Channel layout                           : C L R Ls Rs LFE
  55. Sampling rate                            : 48.0 kHz
  56. Frame rate                               : 93.750 FPS (512 SPF)
  57. Bit depth                                : 24 bits
  58. Compression mode                         : Lossless
  59. Stream size                              : 2.19 GiB (8%)
  60. Title                                    : DTS-HD Master Audio / 5.1 / 48 kHz / 2434 kbps / 24-bit
  61. Language                                 : English
  62. Default                                  : Yes
  63. Forced                                   : No
  64.  
  65. Audio #2
  66. ID                                       : 3
  67. Format                                   : AC-3
  68. Format/Info                              : Audio Coding 3
  69. Commercial name                          : Dolby Digital
  70. Codec ID                                 : A_AC3
  71. Duration                                 : 2 h 8 min
  72. Bit rate mode                            : Constant
  73. Bit rate                                 : 192 kb/s
  74. Channel(s)                               : 1 channel
  75. Channel layout                           : C
  76. Sampling rate                            : 48.0 kHz
  77. Frame rate                               : 31.250 FPS (1536 SPF)
  78. Bit depth                                : 16 bits
  79. Compression mode                         : Lossy
  80. Stream size                              : 177 MiB (1%)
  81. Title                                    : Commentary by director Sidney Lumet and actor Paul Newman
  82. Language                                 : English
  83. Service kind                             : Complete Main
  84. Default                                  : No
  85. Forced                                   : No
  86.  
  87. Text #1
  88. ID                                       : 4
  89. Format                                   : PGS
  90. Codec ID                                 : S_HDMV/PGS
  91. Codec ID/Info                            : Picture based subtitle format used on BDs/HD-DVDs
  92. Duration                                 : 2 h 5 min
  93. Bit rate                                 : 38.1 kb/s
  94. Count of elements                        : 2834
  95. Stream size                              : 34.3 MiB (0%)
  96. Title                                    : SDH
  97. Language                                 : English
  98. Default                                  : No
  99. Forced                                   : No
  100.  
  101. Text #2
  102. ID                                       : 5
  103. Format                                   : PGS
  104. Codec ID                                 : S_HDMV/PGS
  105. Codec ID/Info                            : Picture based subtitle format used on BDs/HD-DVDs
  106. Duration                                 : 2 h 6 min
  107. Bit rate                                 : 33.0 kb/s
  108. Count of elements                        : 2650
  109. Stream size                              : 30.0 MiB (0%)
  110. Language                                 : Danish
  111. Default                                  : No
  112. Forced                                   : No
  113.  
  114. Text #3
  115. ID                                       : 6
  116. Format                                   : PGS
  117. Codec ID                                 : S_HDMV/PGS
  118. Codec ID/Info                            : Picture based subtitle format used on BDs/HD-DVDs
  119. Duration                                 : 2 h 6 min
  120. Bit rate                                 : 32.8 kb/s
  121. Count of elements                        : 2496
  122. Stream size                              : 29.7 MiB (0%)
  123. Language                                 : Dutch
  124. Default                                  : No
  125. Forced                                   : No
  126.  
  127. Text #4
  128. ID                                       : 7
  129. Format                                   : PGS
  130. Codec ID                                 : S_HDMV/PGS
  131. Codec ID/Info                            : Picture based subtitle format used on BDs/HD-DVDs
  132. Duration                                 : 2 h 6 min
  133. Bit rate                                 : 36.0 kb/s
  134. Count of elements                        : 2666
  135. Stream size                              : 32.7 MiB (0%)
  136. Language                                 : Finnish
  137. Default                                  : No
  138. Forced                                   : No
  139.  
  140. Text #5
  141. ID                                       : 8
  142. Format                                   : PGS
  143. Codec ID                                 : S_HDMV/PGS
  144. Codec ID/Info                            : Picture based subtitle format used on BDs/HD-DVDs
  145. Duration                                 : 2 h 6 min
  146. Bit rate                                 : 32.6 kb/s
  147. Count of elements                        : 2658
  148. Stream size                              : 29.6 MiB (0%)
  149. Language                                 : French
  150. Default                                  : No
  151. Forced                                   : No
  152.  
  153. Text #6
  154. ID                                       : 9
  155. Format                                   : PGS
  156. Codec ID                                 : S_HDMV/PGS
  157. Codec ID/Info                            : Picture based subtitle format used on BDs/HD-DVDs
  158. Duration                                 : 2 h 6 min
  159. Bit rate                                 : 38.1 kb/s
  160. Count of elements                        : 2826
  161. Stream size                              : 34.6 MiB (0%)
  162. Language                                 : German
  163. Default                                  : No
  164. Forced                                   : No
  165.  
  166. Text #7
  167. ID                                       : 10
  168. Format                                   : PGS
  169. Codec ID                                 : S_HDMV/PGS
  170. Codec ID/Info                            : Picture based subtitle format used on BDs/HD-DVDs
  171. Duration                                 : 2 h 6 min
  172. Bit rate                                 : 33.7 kb/s
  173. Count of elements                        : 2664
  174. Stream size                              : 30.5 MiB (0%)
  175. Language                                 : Italian
  176. Default                                  : No
  177. Forced                                   : No
  178.  
  179. Text #8
  180. ID                                       : 11
  181. Format                                   : PGS
  182. Codec ID                                 : S_HDMV/PGS
  183. Codec ID/Info                            : Picture based subtitle format used on BDs/HD-DVDs
  184. Duration                                 : 2 h 6 min
  185. Bit rate                                 : 22.4 kb/s
  186. Count of elements                        : 2766
  187. Stream size                              : 20.3 MiB (0%)
  188. Language                                 : Japanese
  189. Default                                  : No
  190. Forced                                   : No
  191.  
  192. Text #9
  193. ID                                       : 12
  194. Format                                   : PGS
  195. Codec ID                                 : S_HDMV/PGS
  196. Codec ID/Info                            : Picture based subtitle format used on BDs/HD-DVDs
  197. Duration                                 : 2 h 6 min
  198. Bit rate                                 : 33.1 kb/s
  199. Count of elements                        : 2380
  200. Stream size                              : 30.0 MiB (0%)
  201. Language                                 : Norwegian
  202. Default                                  : No
  203. Forced                                   : No
  204.  
  205. Text #10
  206. ID                                       : 13
  207. Format                                   : PGS
  208. Codec ID                                 : S_HDMV/PGS
  209. Codec ID/Info                            : Picture based subtitle format used on BDs/HD-DVDs
  210. Duration                                 : 2 h 6 min
  211. Bit rate                                 : 33.7 kb/s
  212. Count of elements                        : 2668
  213. Stream size                              : 30.6 MiB (0%)
  214. Title                                    : Brazilian
  215. Language                                 : Portuguese
  216. Default                                  : No
  217. Forced                                   : No
  218.  
  219. Text #11
  220. ID                                       : 14
  221. Format                                   : PGS
  222. Codec ID                                 : S_HDMV/PGS
  223. Codec ID/Info                            : Picture based subtitle format used on BDs/HD-DVDs
  224. Duration                                 : 2 h 6 min
  225. Bit rate                                 : 34.5 kb/s
  226. Count of elements                        : 2672
  227. Stream size                              : 31.3 MiB (0%)
  228. Title                                    : Castilian
  229. Language                                 : Spanish
  230. Default                                  : No
  231. Forced                                   : No
  232.  
  233. Text #12
  234. ID                                       : 15
  235. Format                                   : PGS
  236. Codec ID                                 : S_HDMV/PGS
  237. Codec ID/Info                            : Picture based subtitle format used on BDs/HD-DVDs
  238. Duration                                 : 2 h 8 min
  239. Bit rate                                 : 33.6 kb/s
  240. Count of elements                        : 2694
  241. Stream size                              : 30.8 MiB (0%)
  242. Title                                    : Latin American
  243. Language                                 : Spanish
  244. Default                                  : No
  245. Forced                                   : No
  246.  
  247. Text #13
  248. ID                                       : 16
  249. Format                                   : PGS
  250. Codec ID                                 : S_HDMV/PGS
  251. Codec ID/Info                            : Picture based subtitle format used on BDs/HD-DVDs
  252. Duration                                 : 2 h 6 min
  253. Bit rate                                 : 30.2 kb/s
  254. Count of elements                        : 2274
  255. Stream size                              : 27.4 MiB (0%)
  256. Language                                 : Swedish
  257. Default                                  : No
  258. Forced                                   : No
  259.  
  260. Text #14
  261. ID                                       : 17
  262. Format                                   : PGS
  263. Codec ID                                 : S_HDMV/PGS
  264. Codec ID/Info                            : Picture based subtitle format used on BDs/HD-DVDs
  265. Duration                                 : 2 h 6 min
  266. Bit rate                                 : 29.4 kb/s
  267. Count of elements                        : 1684
  268. Stream size                              : 26.6 MiB (0%)
  269. Title                                    : Commentary by director Sidney Lumet and actor Paul Newman
  270. Language                                 : English
  271. Default                                  : No
  272. Forced                                   : No
  273.  
  274. Text #15
  275. ID                                       : 18
  276. Format                                   : PGS
  277. Codec ID                                 : S_HDMV/PGS
  278. Codec ID/Info                            : Picture based subtitle format used on BDs/HD-DVDs
  279. Duration                                 : 2 h 6 min
  280. Bit rate                                 : 26.2 kb/s
  281. Count of elements                        : 1544
  282. Stream size                              : 23.7 MiB (0%)
  283. Title                                    : Commentary by director Sidney Lumet and actor Paul Newman
  284. Language                                 : Dutch
  285. Default                                  : No
  286. Forced                                   : No
  287.  
  288. Text #16
  289. ID                                       : 19
  290. Format                                   : PGS
  291. Codec ID                                 : S_HDMV/PGS
  292. Codec ID/Info                            : Picture based subtitle format used on BDs/HD-DVDs
  293. Duration                                 : 2 h 6 min
  294. Bit rate                                 : 27.2 kb/s
  295. Count of elements                        : 1604
  296. Stream size                              : 24.6 MiB (0%)
  297. Title                                    : Commentary by director Sidney Lumet and actor Paul Newman
  298. Language                                 : French
  299. Default                                  : No
  300. Forced                                   : No
  301.  
  302. Text #17
  303. ID                                       : 20
  304. Format                                   : PGS
  305. Codec ID                                 : S_HDMV/PGS
  306. Codec ID/Info                            : Picture based subtitle format used on BDs/HD-DVDs
  307. Duration                                 : 2 h 6 min
  308. Bit rate                                 : 28.7 kb/s
  309. Count of elements                        : 1672
  310. Stream size                              : 26.0 MiB (0%)
  311. Title                                    : Commentary by director Sidney Lumet and actor Paul Newman
  312. Language                                 : German
  313. Default                                  : No
  314. Forced                                   : No
  315.  
  316. Text #18
  317. ID                                       : 21
  318. Format                                   : PGS
  319. Codec ID                                 : S_HDMV/PGS
  320. Codec ID/Info                            : Picture based subtitle format used on BDs/HD-DVDs
  321. Duration                                 : 2 h 6 min
  322. Bit rate                                 : 26.7 kb/s
  323. Count of elements                        : 1646
  324. Stream size                              : 24.2 MiB (0%)
  325. Title                                    : Commentary by director Sidney Lumet and actor Paul Newman
  326. Language                                 : Italian
  327. Default                                  : No
  328. Forced                                   : No
  329.  
  330. Text #19
  331. ID                                       : 22
  332. Format                                   : PGS
  333. Codec ID                                 : S_HDMV/PGS
  334. Codec ID/Info                            : Picture based subtitle format used on BDs/HD-DVDs
  335. Duration                                 : 2 h 8 min
  336. Bit rate                                 : 17.4 kb/s
  337. Count of elements                        : 1590
  338. Stream size                              : 16.0 MiB (0%)
  339. Title                                    : Commentary by director Sidney Lumet and actor Paul Newman
  340. Language                                 : Japanese
  341. Default                                  : No
  342. Forced                                   : No
  343.  
  344. Text #20
  345. ID                                       : 23
  346. Format                                   : PGS
  347. Codec ID                                 : S_HDMV/PGS
  348. Codec ID/Info                            : Picture based subtitle format used on BDs/HD-DVDs
  349. Duration                                 : 2 h 6 min
  350. Bit rate                                 : 26.0 kb/s
  351. Count of elements                        : 1598
  352. Stream size                              : 23.6 MiB (0%)
  353. Title                                    : Commentary by director Sidney Lumet and actor Paul Newman
  354. Language                                 : Spanish
  355. Default                                  : No
  356. Forced                                   : No
  357.  
  358. Menu
  359. 00:00:00.000                             : en:Main Titles
  360. 00:01:40.850                             : en:Same Old Thing
  361. 00:11:03.537                             : en:Four Years
  362. 00:15:40.564                             : en:Nuisance Suit
  363. 00:17:13.240                             : en:Bozos
  364. 00:19:38.343                             : en:A Good Day
  365. 00:23:07.177                             : en:Polaroids
  366. 00:25:15.639                             : en:A Generous Offer
  367. 00:31:40.565                             : en:Two Sides
  368. 00:35:56.612                             : en:Lucky
  369. 00:42:05.231                             : en:Things Change
  370. 00:47:00.359                             : en:Ruined Lives
  371. 00:51:14.988                             : en:Stood Up
  372. 00:55:47.093                             : en:Rock Bottom
  373. 00:58:48.900                             : en:In a Panic
  374. 01:03:15.291                             : en:Code Blue
  375. 01:05:43.564                             : en:Scaring Up Witnesses
  376. 01:10:10.289                             : en:A Good Doctor
  377. 01:12:46.528                             : en:Feeling the Pressure
  378. 01:16:15.070                             : en:All Rise
  379. 01:20:22.108                             : en:Just an M.D.
  380. 01:27:01.549                             : en:Starved for Oxygen
  381. 01:29:47.799                             : en:Over
  382. 01:30:57.869                             : en:Paid to Win
  383. 01:32:47.270                             : en:The Admitting Nurse
  384. 01:39:16.992                             : en:Off to New York
  385. 01:42:25.347                             : en:A Wonderful Profession
  386. 01:44:07.491                             : en:Betrayed
  387. 01:47:32.904                             : en:A Single Hour
  388. 01:59:47.471                             : en:Tired of Lies
  389. 02:03:40.413                             : en:The Jury Speaks
  390. 02:06:53.272                             : en:End Titles
RAW Paste Data
We use cookies for various purposes including analytics. By continuing to use Pastebin, you agree to our use of cookies as described in the Cookies Policy. OK, I Understand
 
Top